&title=the world of scarlet
&artist=OfficialAz3
&first=0.079
&des=the world of fractured
&lv_5=14+
&des_5=the world of fractured
&inote_5=
(105){4},{16},,,,,,,,,,,,8/2,
8/2,8/2,8/2,8/2,8/2,8/2,8/2,2/7,2/7,2/7,2/7,7/2<5b[1:1],7/2h[8:1],{8}7h[8:1],
,,,,,,{4}5>8b[1:1],
,,,8<3b[1:1],
,,,3>6b[1:1],
{8},,,,,,,,4,
2/5,{4}3h[16:5]/6h[16:5],{8},5,{4}7/4,
{8}5,6/4,{4}4h[8:1]/6h[16:3],{16},6,{8}4-8[16:1],{4}2,
{16}7/1,7/1,6/2,6/2,{4}7h[16:5]/1h[16:5],{8},6/2,{4}7/1,
{16}3/7,7/3,{8}6h[8:3],{16}1b,1b,1b,1b,{8}2v3-5[16:3],7<5[16:1],,,4bx,
5bx,{16}3/6,{32}4,5,{16}4,{32}6,5,7V58[8:1],5,{16}6,{32}8-3[16:1],7,5,6,,,,,{8}4b,
5-8[16:1],{16}7/4-1[16:1],6/3,{8}5/2,4,{32}8-3-7[8:1],2,7,2,{8}7-2-6[8:1],,,5bx,
4bx,{16}6/3,{32}5,4,{16}5,{32}3,4,2V41[8:1],4,{16}3,{32}1-6[16:1],2,4,3,,,,,{8}5b,
{16}2,2,2,3,{24}3,3xh[24:1],,4,,4,,4,,{8}4,{4}6b/3b,
{8}5bx,4bx,{16}6/3,{32}5,4,{16}5,{32}3,4,2V41[8:1],4,{16}3,{32}1-6[16:1],2,4,3,,,,,{8}5b,
4-1[16:1],{16}2/5-8[16:1],3/6,{8}4/7,5,{32}1-6-2[8:1],7,2,7,{8}2-7-3[8:1],,,4bx,
5bx,{16}3/6,{32}4,5,{16}4,{32}6,5,7V58[8:1],5,{16}6,{32}8-3[16:1],7,5,6,,,,,{8}4bw8b[8:5],
{1}Cf,
{4}3h[4:3],{16},,,,,,,,8h[16:3],,,4,
{8}3h[8:5],,,,,2h[8:1],{16}1h[16:3],,,7,
{2}8h[2:1],{4}1h[4:1],2h[4:1],
{1}3h[1:1],
{8}4,4,{4}5h[16:5]/3h[16:5],{8},4,{4}5/3,
{8}5,5,6/4,{16}5,5,5,5,{8}5,{4}6/4,
{16}7/1,7/1,6/2,6/2,{4}7h[16:5]/1h[16:5],{8},6/2,{4}7/1,
{16}3/7,7/3,6/4,6/4,{4}3h[8:1]/7h[16:3],{16},7,{8}3-6[16:1],{4}5h[8:1],
{48}8b,7,6,5,,,,,,8b,7,6,{8}5,{48}8b,7,6,5,,,,,,,,,7b,6,5,4,,,6b,5,4,3,,,,,,,,,1b,
2,3,4,,,{16}8,{48}2b,3,4,{16}5-7>8-5[4:1],7,{48}3b,4,5,6h[16:5],{4},,{24},{16}E7f/A7/A6/2-5[16:1],
,,1,{8}2b,A3f/D3/D4/8-4[16:1],{16},1,{8}8b-3b[16:1]*v2b[16:1],{4}A6f/D7/D6,
{16}5-1[16:1],,,4,{8}5b,4-1[16:1]*-7[16:1],{16}3-7>8-6-4[4:1]/5-1<8-2-4[4:1],3/5,{8}4,{16},,,,B4f,
B4f,B4f,B4f,2/7,{32}1,8,{16}1,{32}7,8,6V85[8:1],8,{16}7,{32}5-2[16:1],6,8,7,,,,,{8}1b,
8-5[16:1],{16}6/1-4[16:1],7/2,{8}8/3,1,{32}5-2-6[8:1],3,6,3,{8}6-3-7[8:1],,,8bx,
1bx,{16}7/2,{32}8,1,{16}8,{32}2,1,3V14[8:1],1,{16}2,{32}4-7[16:1],3,1,2,,,,,{8}8b,
{4}Cf,{16},,,,,,,,2/8,2/8,2/8,2/8,
{32}1-5[16:1],7,{16}8-6[16:1],3/5,{32}2,4,{16}1,8,3,7,{32}2-8[16:1],1,{16}3-7[16:1],7/5,{32}3,4,{16}2,3,1,5,
2-7[16:1],2,2,3,{24}3,3xh[24:1],,4,,4,5-8[16:1],4,,{8}4,5,7/3,
{32}8-4[16:1],2,{16}1-3[16:1],6/4,{32}7,5,{16}8,1,6,2,{32}7-1[16:1],8,{16}6-2[16:1],2/4,{32}6,5,{16}7,6,8,4,
5b/6b,6b/7b,7b/8b,8b/1b,{8}1b/8b,8b/1b,{16},8b/1b,{8}1b/8b,2b/1b,7b/6b,
{32}4-8[16:1],5,{16}3-1[16:1],6/2,{32}7-5[16:1],1,{16}4,3,6,7,{32}3-7[16:1],4,{16}2-8[16:1],7/5,{32}6-4[16:1],1,{16}3,2,5,6,
2<7[16:1],2,2,3,{24}3,3xh[24:1],,4,,4,5<8[16:1],4,,{8}4,{4}5,
{32}5-1[16:1],4,{16}6-8[16:1],3/7,{32}2-4[16:1],8,{16}5,6,3,2,{32}6-2[16:1],5,{16}7-1[16:1],2/4,{32}3-5[16:1],8,{16}6,7,4,3,
{1}6bh[4:3],
{4}6h[4:3],{16},,,,,,,,1h[16:3],,,5,
{8}6h[8:5],,,,,7h[8:1],{16}8h[16:3],,,2,
{2}1h[2:1],{4}8h[4:1],7h[4:1],
{1}6h[1:1],
{8}5,5,{4}4h[16:5]/6h[16:5],{8},5,{4}4/6,
{8}4,4,3/5,4,,4,{4}3/5,
{16}2,8,3,7,{4}2h[16:5],{8},7,{4}2,
{16}6,2,5,3,{8}6h[8:1],2,{4}6-3[16:3],{16}E7,E8,E2,E3,
E
