&title=Lost Cicilization
&artist=Laur vs. CK
&des=忘了
&first=-0.02
&des_5=忘了
&lv_5=13+
&clock_count=4
&inote_5=(210)
{1},
{4}B1hf[4:4],,,,
{32}B8/B2,B3/B7,B6/B4,E5/E6,5hbx[32:20],,,,
{16},,,,,,,,1,,1,,2pp5[4:3],,,,,,,,8,,8,,7,,7,,6pp1[4:3],,,,,,,,,,,,5,,5,,4,,,,
{8},,26,,4/8qq5[4:3],,18,,,,,,3,4,4p1[4:3],,,,8,8,7,6,5h[4:2],,,,
{12}1,2,3,48,7,6,5p8[8:2]/1,,,
{16},,,5x,4x,3x,2x,1x,8x,7x,6x,5x,4x/8x-3[8:1],,4,,
{16}48,,4,,4/8-5[8:1],,4,,48,,4,,4/8>3[8:1],,4,,48,,4,,4-2[8:1]/8-6[8:1],,,,,,,,
{16}1x-4[8:1]/5,,5,,15,,5,,5/1-6[8:1],,5,,51,,5,,5/1>4[8:1],,5,,51,,5,,5v7[8:1]/1v3[8:1],,,,,,,,
{16}48,,4,,37,,3,,26,,6,,15,,5,,14,,1,,24,,2,,35,,5,,46,,6,,5<4b[16:9]/7b>4[16:9],,,,,,,,,,,,,,5,6,7,8,1,2,3,4,
{16}5,{24}E6,E7,E8,E1,E2,E3f,
{16},,,,,1,,1-3[8:1],,8q4[4:1],,,,8qq5[8:5],,,,,,5-1[8:2],,,,,,,,,,8q4[8:1]/4q8[8:1],,,,,,,,
{16}7,,7-3[8:1],,1q5[4:1],,,,1qq6[8:5],,,,,,6-2[8:2],,,,,,,,,,1>4[8:1]/5<8[8:1],,,,,,,,
{16}5,,5-2[8:1],,1q6[4:1],,,,1pp4[8:5],,,,,,5-8[8:2],,,,,,,,,,1qq7[8:1]/5qq3[8:1],,,,,,,,
{16}2,,2-5[8:1],,6v1[8:1],,,,6pp1[8:5],,,,,,5v2[8:2],,,,,,,,,,8pp2[8:1]/3qq1[8:1],,,,,,,,
{16}8-2>3b[8:1],,,,6h[4:6]/8,{64}E1,E2,D3,,,,,,,,,,
{16}8-6>5[8:1],,,,8,{64}E8,E7,D6,,,,,,,,,,
{16}8v3b[8:1],,,,8,{64}B8,C,B3,,,,,,,,,,
{16}8v5[8:1],,,,8,{64}B8,C,B5,,,,,,,,,,
{16}8<7-5[8:1],,,,2h[4:6]/8,{64}A7,E7,E6,,,,,,,,,,
{16}8>1-3b[8:1],,,,8,{64}A1,E2,E3,,,,,,,,,,
{16}8-5[8:1],,,,8,{64}E8,B6,A5,,,,,,,,,,
{16}8-3b[8:1],,,,8,{64}E1,B2,A3,,,,,,,,,,
{16}1q5[8:1],,,,1qq6[4:3],,,,,,,,5-2[8:2],,,,,,,,,,,,
{16}1-3b[8:1]/5-7[8:1],,,,,,,,48,,48,,37,,37,,26,,26,,1-4[8:1]/5,,15,,1-6[8:1],,,,1>4[8:1],,,,1<6[8:1],,,,1>1[4:4]*>7>5b[4:6],,
{8},1b,,,,,,,,,,,,,,2-4b[8:1],,1,,1,,1-5b[8:1],,8,,8-6[8:1],,8-4b[8:1],,8,,7,,57,46,35,,34,,4/5-7[8:1],,4,,4-8[8:1],,3,2,1,,
{8}1-3b[8:1],,8-4[8:1],,8,,35,,24,35,46,,4,,/4-2b[8:1],,5,,5-1b[8:1],,6-8[8:1],,2,,2-4b[8:1],,1-5[8:1],,1,,2,,24,35,46,,
{8}7,,8<2[4:3],,6>8b[4:3],,4>6[4:3],,2<4[4:3]*<4[4:3],,8<8[4:4],,,4,4>4[4:4]*>8z4b[64:63],
{8},,,,,,,,,,,1-3b[8:1],,8,,8-6[8:1],,8-5[8:1],,8,,4-2b[8:1],,4-1b[8:1],,4,,8,,2,1,8,,8,,8-3b[8:1],,86,,6,,7,8,1,,1-6[8:1],,1-5b[8:1],,1,,
{8}7,,57,46,35,,5,,5-7[8:1],,4,,4-8[8:1],,3-1b[8:1],,3,,8-6[8:1],,1-5b[8:1],,1,,4,,46,35,2/4,,1,,1V35-7[4:3],,3V57-1b[4:3],,5V71-3[4:3],,7V13-5[4:3]*V13-5[4:3],,
{8}1V35-7[4:3],,,5,5V71V35[4:4]*<5<7b[8:10],,,,,,,,,,,,
{8}1-3[8:2],,6,,7,,8-4[8:2],,3,,2,,1-3[8:2],,7,,,7,8>4[4:2],,8,,,,1q5[4:2],,1,,,,1p5[4:2],,1,,,,1V35V71[4:5],,1,,,,5xq1b[4:2],
{8},,,,,,,6,,7,,8v5[4:1],,2,,1,,8v3[4:1],,6,,7,,8-4[8:1],,4w8b[8:1],,,,,,2-5[8:1],,2/8-4[8:1],,8/1-3[8:1],,1/8-6[8:1],,8/1w5[8:1],,1,,37,37,26,26,15,15,
{16}1,2,3,4,1,8,7,6,1,2,3,4,8bh[4:1],,,,4,5,6,7,8,15,26,37,48,15,2,3,4,5,6,7,8,1,2,3,4h[4:3]/8h[32:25],,
{8},,,,,,,,,3/1>5[4:2],28,1x/7,,7,8,1V35[2:1],,1x,,8,8,1q5[2:1],,1x,,7,8,1>5qq3[4:3],,1x,,2x,1x,8x<4[2:1],
{8},8,,1,1,8V64[2:1],,8x,,2,1,8p4[2:1],,8x,,1,1,8<4pp6[4:3],,8x,,4x,3x,2xv4<5[4:2],,2x,,7,8,1-4<5[2:1],,1x,,2,1,8q4<5[2:1],,8x,,5,6,7q3<5[2:1],,7x,,8,1,2-4[4:1],,
{8}4-8[4:1],,8-6[4:1],,6-2[4:1],,2V48[2:1],,4,,5-7>8[4:1],,5x,,2,3,4-6<7[4:1],,4x,,8,1,2>4[4:1],,4-8[4:1],,8<6[4:1],,6-2[4:1],,2>4-8[2:1],,7,,7-4>3[4:1],,7x,,
{8}2,1,8-5>4[4:1],,8x,,3,2,1<6[4:1],,6>3[4:1],,3>8[4:1],,8-5[4:1],,5-2[4:1],,2-7[4:1],,6-4>3[4:1],,6x,,2,1,8-2>3[4:1],,8x,,6,7,8-5>4[4:1],,8x,,3,2,
{8}1-3[8:1]*-4[8:1],,1x-7[8:1]*-6[8:1],,1xw5[8:1]*w5[8:1],,1x,,7-3[8:1],7,1-4[8:1],1,8-5[8:1],8,2-6[8:1],2,4,4,3,3,
{16}5,2,5,2,6,1,6,1,7,8,7,8,
{24}8hx[8:1]/7x,6x,5x,4x,,,1hx[8:1]/2x,3x,4x,5x,,,4x/8x,3x/7x,2x/6x,1x/5x,,,
(200){8}1/B5/B6,2,3,4,5,6,7/B3/B4,8,1,2,3,4,(190)5/B1/B2,6,7,8,1,2,3/B8/B7,4,5,6,7,8,(185)1/B5/B6,2,3,4,5,6,7/B3/B4,8,1,2,3,4,(175)5/B1/B2,6,7,8,1v3b[9.9#300:1],2,(140)3/B7/B8,4,5v7[11.2#196:1],(105)6,(90)7,(75)8,
{24}1h[210#32:113]/5h[210#32:116],,,,,,,,,,,,,,,,,,,,,,,,,,,,,,,
(210),
