&title=安可舞
&artist=MIMI
&first=0
&des=铭恢
&lv_5=13
&des_5=铭恢
&inote_5=
(132){4},,{2}E3,
E5,E7,
E1,C/E3,
C/E5,C/E7,
C/E1,{4}3,3,
3,3,3/6xh[4:3],3,
{2}3,{4}2,2,
2,2,2/7xh[4:3],2,
{2}2,{4}5/2,3xh[16:1],
7/4,6xh[16:1],5/1,7xh[16:1],
8/4,2xh[16:1],2-7[8:1],2h[8:1],
6-3[8:1],6h[8:1],{8}8xh[32:1],3xh[32:1],6xh[32:1],3bxq6b[8:1],
{4}3bxh[8:1],3bx,7,3x,
8h[8:1],4xh[8:1],1v6[4:1],5v2[4:1],
,,6b,2bx,
5bh[8:1],1bxh[8:1],{8}B8,B1,B7,B2,
E7,E3,{4}Cf,{8}4h[4:1],5,6,7h[4:1],
3,2,1h[4:1],2,8,7/2,7/2,6/3,
6/3,5/4,{4}5/4,5/3>6[32:7],{8}6b<3[4:1],5,
,4,4,4xh[8:1],{16},,5,5,3,3,6,6,
{8}2,2bx,{4}2bx,{8}6-2[8:1],3,,,2v7[8:1],
6,,,2x/8h[2:1],7x,7x,2x,
{4}2b,4/6<3[32:7],{8}3b>6[4:1],4,,5,
5,5xh[8:1],{16},,4,4,6,6,3,3,{8}7,7bx,
7bx,7bx,{4}7bx,{8}6-2[8:1],3,,,2-7[8:1],
6,,,7x/1h[2:1],2x,2x,7x,
{2}7b,{4}6h[8:1],{8}B3,5h[8:1],
,B2,{4}4h[8:1],{8}B8,3h[8:1],,E7,
E6,E7,{4}E6,{8}4h[32:1],3h[32:1],2h[32:1],1h[32:1],
8h[32:1],1h[32:1],{4}8h[32:1],{16}8,7,1,2,{32},7,,6,,2,,3,
,,A6,D6,A5,D5,A4,D4,{4}A3,{8}D1h[8:29],{32}B8,B7,{16}E7,{32},,,,,,,,,,,,B1,
B2,{16}E3,{32},,,,,,,,,,,,B8,B7,{16}E7,{32},,,,,,,,,,,,B1,
B2,{16}E3,{32},,,,,,,,,,,,B8,B7,{16}E7,{32},,,,,,,,,,,,B1,
B2,{16}E3,{32},,,,,,,,,,,,B8,B7,{16}E7,,,,,,,,,,,,,{4}5/2,
3xh[16:1],
7/4,6xh[16:1],5/1,7xh[16:1],
8/4,2xh[16:1],6/3,4xh[16:1],
8/5,7xh[16:1],6/2,8xh[16:1],
1/5,3xh[16:1],{8}1h[4:1],8,7,6h[4:1],
2,3,4h[4:1],3,5,6/3,6/3,7/2,
7/2,8/1,{4}8/1,5/3>6[32:7],{8}6b<3[4:1],5,
,4,4,4xh[8:1],{16},,5,5,3,3,6,6,
{8}2,2bx,{4}2bx,{8}6-2[8:1],3,,,2v7[8:1],
6,,,2x/8h[2:1],7x,7x,2x,
{4}2b,4/6<3[32:7],{8}3b>6[4:1],4,,5,
5,5xh[8:1],{16},,4,4,6,6,3,3,{8}7,7bx,
7bx,7bx,{4}7bx,{8}6-2[8:1],3,,,2-7[8:1],
6,,,7x/1h[2:1],2x,2x,7x,
{2}7b,{16}B5,B4,B6,B3,B7,B2h[32:0],B8,B1,
B7,B2,B6,B3,E1h[32:0],B8,B1,B7,B2,B6,B3h[32:0],B5,B4,B6,B3,B7,
B2,E1h[32:0],B8,B1,B7,B2,B6,B3h[32:0],B5,B4,B6,B3,B7,B2,E5h[32:0],B5,
B4,B6,B3,B7,B2,B8,{8}1xh[8:1],,,{4}7x<2[4:1],
2x>7[4:1],,,7-5[4:1],
,4-2[4:1],,6-8[4:1],
,1-3[4:1],{8}6,6,6,6,
6/3,6/3,6/3,6/3,6/3/D6/D4,6/3/D6/D4,6/3/D6/D4,6/3/D6/D4,
{32}6x/3x,5x/4x,,,,,,,,,,,,,,,{4}4/2<5[32:7],{8}5b<2[4:1],4,
,3,3,3xh[8:1],{16},,4,4,2,2,5,5,
{8}1,1bx,{4}1bx,{8}5-1[8:1],2,,,1v6[8:1],
5,,,1x/7h[2:1],6x,6x,1x,
{4}1b,5/7>4[32:7],{8}4b>7[4:1],5,,6,
6,6xh[8:1],{16},,5,5,7,7,4,4,{8}8,8bx,
8bx,8bx,{4}8bx,{8}7-3[8:1],4,,,3-8[8:1],
7,,,8x/2h[2:1],3x,3x,8x,
{2}8b,{16}7,7,5,5,3,3,1,1,
7,7,5,5,3,3,1,1,{8}7<4[8:1],7,8v3[8:1],8,
7<4[8:1],7b,{4}8b,{16}7,7,5,5,3,3,1,1,
{2}7x<2[8:1],{4}8bh[8:1]/1bh[8:1],7bh[8:1]/2bh[8:1],
{8}6b/3b,6b/3b,{4}5b/4b,7/1>6[32:7],{8}6b>1[4:1],7,
,8,8,8xh[8:1],{16},,7,7,1,1,6,6,
{8}2,2bx,{4}2bx,{8}6-2[8:1],1,,,2v5[8:1],
6,,,2x/4h[2:1],5x,5x,2x,
{2}2b,{8}B4,B2,6bh[4:1],3bh[8:1],
{1}Cf,
E
