&title=Piper Hyper Caravan
&artist=Sampling Masters MEGA
&first=0
&des=WYBXXJ
&lv_5=MEGA
&des_5=WYBXXJ
&inote_5=
(200){4}Ch[1:2],,,,3/B7,
3/B7,3/B7,3/B7,
{8}2-4[8:1],,,8,{4}8-4[8:1],1,
{8}5-7[8:1],,,3,{4}3-8[8:1],4,
{8}1-5[8:1],8-6[8:1],1,8,{4}4w8[8:1],4,
2>5[8:1]/6pp1[2:3],2,,,3,
3,3,3,
2h[16:1],2h[16:1],{16}1,8,1,8,{8}1,2/7,
1>3[8:1],7,1-5[8:1],5,1>3[8:1],7,1-5[8:1],5,
1>3[8:1],{16}8,7,{8}6/1-5[8:1],{16}7,6,{8}1/5,8,{4}7/1,
{8}3/4,{16}2,1,{8}2,{16}7,8,{8}7h[4:1],6,5,4,
3,{16}2,1,{8}2,{16}7,8,{8}7,4/5,{16}2/8,3/7,{8}4/6,
8<6[8:1],2,8-4[8:1],4,8<6[8:1],2,8-4[8:1],4,
8<6[8:1],{16}1,2,{8}3/8-4[8:1],{16}2,3,{8}8/4,1,{4}2/8,
{8}6/5,{16}7,8,{8}7,{16}2,1,{8}2h[4:1],3,4,5,
{16}2,E5/D5,2,E5/D5,{4}2,{16}7,E5/D5,7,E5/D5,{4}7,
3-5[8:1],{8}3/5,6V48[4:1],,2,{4}2,
{8}1/2,{16}3,4,{8}3,1/8,5/6,1/8,{4}3/4,
{8}8/7,{16}6,5,{8}6,8/1,4/3,8/1,{4}6/5,
{8}7-3[8:1],8,1-5[8:1],8,7<4[8:1],8,1>4[8:1],8,
7-4[8:1],8,2-5[8:1],1,8-4[8:1],1,{4}2b,
{8}8/7,{16}6,5,{8}6,8/1,4/3,8/1,{4}6/5,
{8}1/2,{16}3,4,{8}3,1/8,5/6,1/8,{4}3/4,
{8}2-6[8:1],1,8-4[8:1],1,2>5[8:1],1,8<5[8:1],1,
2-6[8:1],1,{4}8w4[8:1],{2}8,
{8}5/4>1[8:1],6,5/4,6,5/8-4[8:1],6,5/8,6,
5/3-8[8:1],{16}8,7,{8}6/3-5[8:1],{16}7,6,{8}5/3,8,{4}7/1,
{8}2/5,{16}3,4,{8}3,{16}6,5,{8}6h[4:1],8,3h[8:1],1,
7/4,{16}6,5,{8}6,{16}3,4,{8}3h[4:1],1,6h[8:1],8b,
4/5<8[8:1],3,4/5,3,4/1-5[8:1],3,4/1,3,
4/6-1[8:1],{16}1,2,{8}3/6-4[8:1],{16}2,3,{8}4/6,1,{4}2/8,
{8}7/4,{16}6,5,{8}6,{16}3,4,{8}3h[4:1],1,6h[8:1],8,
{16}1,E5/D5,2,E5/D5,{4}3,{16}8,E5/D5,7,E5/D5,{4}6,
{16}2/4,,,3/5,,,{8}4/6,{16}8/6,,,7/5,,,{8}6/4,
3/8,{16}2,1,{8}2-5[8:1],4-8[8:1],,,,,6/1,
{16}7,8,{8}7-4[8:1],5-1[8:1],,,,,2-5[8:1],
8,6-3[8:1],8,1-5[8:1],8,7-3[8:1],8,
2-5[8:1],8,6-3[8:1],8,1-5[8:1],8,{4}7,
{8}7/4,{16}6,5,{8}6-1[8:1],8-4[8:1],,,,,2/5,
{16}3,4,{8}3-8[8:1],1-5[8:1],,,,,7-4[8:1],
1,3-6[8:1],1,8-4[8:1],1,2-6[8:1],1,
8-4[8:1],1-3[8:1],8-6[8:1],1-5[8:1],8-4[8:1],1-3[8:1],8,1,
{12}8,8,A5/B5,7,7,A4/B4,6,6,A3/B3,5,5,A2/B2,
{2}4h[2:1],{32}1bx,2x,3bx,4x,5bx,6x,7bx,8x,{4}1x,
2h[4:7]/7-4[8:1],7,3-8[8:1],3,
1-4[8:1],1,5-8[8:1],5,
{16}1/2,,,3/4,{8}3/4,5/6,7/8,2/1,{4}3/4,
{16}7/3,B7/B3,3/7,B7/B3,{4}7/3,{16}2/6,B2/B6,6/2,B2/B6,{4}2/6,
7h[4:7]/2-5[8:1],2,6-1[8:1],6,
8-5[8:1],8,4-1[8:1],4,
{16}8/7,,,6/5,{8}6/5,4/3,2/1,7/8,{4}6/5,
{16}2b/6b,5x/3x,6/2,5x/3x,{4}2/6,{16}7b/3b,4x/6x,3/7,6x/4x,{4}7/3,
1<6[8:1],5-8[8:1],4h[4:1],7,
{8}8,{16}1,2,{8}3/4,{16}8,7,{8}6/5,4/5,{4}2/7,
1-6[8:1],5<8[8:1],3h[4:1],1,
{16}1,2/8,3/7,4/6,{4}5,{16}8,7/1,6/2,5/3,{4}4,
{8}2/6,4,7/3,5,3/8,4,6/1,5,
{16}2h[8:1]/4h[8:1],,,3/5,4h[8:1]/6h[8:1],,,3/5,{8}2/4,1/8,6/5,1/8,
7/3,5,2/6,4,6/1,5,3/8,4,
{16}8/5,7/4,6/3,5/2,{4}4/1,{16}1/4,2/5,3/6,4/7,{4}5/8,
B7/E7/B6/Ch[4:3],,,8<5[8:1],
{8}8>3[8:1],2,8<5[8:1],4,8-3[8:1],2,8,4,
8,{16}7/1,6/2,{8}5/3,{16}2/8,3/7,{8}4/6,1/2,4/5,7/8,
1-6[8:1],7,1>4[8:1],5,1-6[8:1],7,1,5,
{16}8,E6/D6,1,E6/D6,{4}2,{16}1,E4/D4,8,E4/D4,{4}7,
{1}1>1[1:1],
1>1[1:1],
{2}1>1[2:1],1>1[2:1],
{1}1q5>2[2:1]*p5<8[2:1],
{4}E2,E3,E4,E5,
E6,E7,E8,E1,
1h,2h,3h,4h,
5h,6h,{2}7h[4:1],
{1}7qq1[2:1],
{4}8qq5[8:3],4>1[8:1],4,B3f/E3/A3/E4,
{16}1b-5[8:1],2,3/7,6,{8}5/1>3[8:1],8,1-5[8:1],7,{4}1,
{16}7-3[8:1],6,5/3,2,{8}1/7<5[8:1],4,7-3[8:1],1,{4}7,
{16}2-6[8:1],3,4/6,7,{8}8/2>4[8:1],5,2-6[8:1],8,{4}2,
{16}4x/8xh[4:1],4x,4x,4x,{4}4x,{16}6x/2xh[4:1],6x,6x,6x,{4}6x,
{16}1-5[8:1],2,3/4-7[8:1],5,{8}6/1,4,2-6[8:1],4/8,{4}2,
{16}8-4[8:1],7,6/5-2[8:1],4,{8}3/8,5,7-3[8:1],5/1,{4}7,
{16}2-6[8:1],3,4/6,7,{8}8/2>4[8:1],4-8[8:1],2,7,{4}6,
{16}1,5,1,5,2,6,2,6,3,7,3,7,4,8,4,8,
{8}2-5[8:1],1-6[8:1],2,1,3-8[8:1],4-7[8:1],3,4,
1-5[8:1],8-6[8:1],1,8,3,4/2,,,7-4[8:1],
8-3[8:1],7,8,6-1[8:1],5-2[8:1],6,5,
8-4[8:1],1-3[8:1],8,1,6,5/7,3,2/4,
1>4[8:1],5<8[8:1],1-5[8:1],5-1[8:1],,,{4}8,
{8}7<4[8:1],3>8[8:1],7-3[8:1],3-7[8:1],,,,,1-4[8:1],
5-8[8:1],1,5,2-5[8:1],6-1[8:1],2,6,
3-6[8:1],7-2[8:1],3,7,{2}4h[4:5],
{4}2,6,2,6,
{8}2/1,3,8/7,6,{4}5-1[8:1]/4-8[8:1],4b/5b,
{8}2-5[8:1],1-6[8:1],2-7[8:1],1-4[8:1],2,1,,,7-4[8:1],
8-3[8:1],7-2[8:1],8-5[8:1],7,8,,,1-5[8:1],
8-6[8:1],1-3[8:1],8-4[8:1],1-6[8:1],8-3[8:1],1,8,
5,5,3/7,4/6,2-5[8:1]/8-5[8:1],4/6,{4}2/8,
{8}7-4[8:1],8-3[8:1],7-2[8:1],8-5[8:1],7,8,,,2-5[8:1],
1-6[8:1],2-7[8:1],1-4[8:1],2,1,,,3/8,
5/6,,8/7,6/1,4/3,,1/2,
3/8,5/6,,8/7,6/1,4/3,8/1,5/6,
{12}2b,2,2,3b,3,3,4b,4,4,5b,5,5,
6b,6,6,7b,7,7,8b,8,8,1bw5b[8:1],,,{1}1b,
E
