&title=REVENGE
&artist=フランシュシュ
&first=0
&des=YOZ
&lv_5=13+
&des_5=YOZ
&inote_5=
(135){4},5,5,{16}5,,,5,
,,{8}5,{4}Cf/5<4[2:1],,,,7h[4:1]/1-5[8:1],
{8},,8,8b,
,,{4}Cf/4>5b[2:1],,,,8h[4:1]/2h[4:1],
{16},,4,5,{8}4,7x/8x,
{24}3,4,3,4,3,4,{4}2h[8:1],2h[8:1]/B7,2h[8:1],
{8}2h[8:1]/E8,E7,{4}2h[8:1]/E6,2h[8:1]/B4,2h[8:1]/B1,
{24}6,5,6,5,6,5,{8}7xh[16:13],B2,{16},E4/B4,,,5,5,,6,
,8-4[8:1],,,{4}Cfh[2:1],{16},,,,E8/B7/B8,,,B3/B4/E4,
,,{8}C,{4}B8/B7/B6/B5/B4/B3/B2/B1/Cf,1/8,{16}3h[16:3],,,5,
{8}4,5/6,7,1/8,2,{16}3,4,3h[16:3],,,7,
{8}8,5/6,{16}4/5h[16:3],,,2,{8}1,6/3-8[8:1],4,3/6-1[8:1],
5,2/6,{16}2h[16:3],,,5,{8}4,{16}6,6,4,5h[8:1],,3,
{8}4,5/2,{4}6/1-5[8:1],1/7-3[8:1],{16}7/4,,,5,
{8}5,8/7<4[8:1],{16},,,,,,2,1,2>5[8:1],,,6,
{8}6,7,{16}8h[16:3],,,3,{8}4,5/2,{16}7,8,6,5,
7,4,{8}8h[8:1],{16}2h[8:1],,,7h[8:1]/5h[8:1],,,{8}4h[8:1]/2h[8:1],{16},8xh[16:5]/1xh[8:1],,,{8}2x,
3x,{4}4/5-2[8:1],5/7-4[8:1],7/1-6[8:1],
1/3>8[8:1],3/7-4[8:1]*-3[8:1],7,{16}2,2,,6,
6,5,,,{4}4/3-8[8:1],3/5-2[8:1],5/7<4[8:1],
7/1-5[8:1],1/3-8[8:1]*-7[8:1],3,{16}6,6,,2,
2,1,{48},,,,,,{24}8/1>4[8:1],7,6,5,,,{4}1/8<5[8:1],{24}8/4-8[8:1],3,2,1,,,{4}4,
{8}5/6,{16}4,4,7,7,3,8,{4}2/1w5[8:1],
1b/Cf,{8}6/2,{16}3,5,{8}4,{16}6,4,{8}5,{16}3,4,
{8}2qq4[4:1],E5,E6,E7,E8,{16}6,4,5,3h[16:3],,,{8}B7/E7,
{16}3,5,4,6h[8:1],,4,{8}4x,{16}7,1,8,2h[8:1],,8,
{8}8x,{16}6,4,5,3h[8:1],,5,{8}5x,{16}3,5,4,8,{8}1,
7/6,5/4,{4}3/2q5[8:3],{8}6,7,{4}8qq4[8:3],
{8}4,3,2,1,{16}7,7,6,6,5b,5,4b,4,
{32}3b,2,1,8,{8}7/Cf,5h[8:1],B5,3h[8:1],B3,{16}4/6h[16:3],,,4,
{8}4/6,8/1h[2:1],,7,6,7,{24}6,5,4,3,2,1,
8/4,5,6,7,8,1,{16}2/6,6h[16:3],,,{8}4,5,{16}3/5,3h[16:3],,,{8}1<3[8:3],
2,{4}1/8,{8}8,8,{24}7,6,5,4,3,2,
7/1,6,5,4,3,2,{8}1h[8:1],4,{16}7,8,,6,{8}5,{16}3,4,
{8}5/2,{16}6,5,{8}7b/4b,{16}2,1,3,4,{8}2h[8:1],{16}1,3,8,4,
7,5,{8}6h[8:1],{16}4,4bx,,B6/B7/E7f,,,{8}2/8,{16}5,5bx,,B2/B3/E3f,
,,{8}7/1,4/2,3,5/7,6,{16}3,7,2,6,
1,5,8,4,{4}7xh[8:7]/3xh[8:7],{16},,,,,,,,,,,,8,
4,,1,{8}5,{16}2,4,{8}2,{16}7,5,
{8}7,3/4,2-6[8:1],2,1-5[8:1],1,8-4[8:1],8,
7-3[8:1],7,{16}1h[8:1],,,7h[8:1]/5h[8:1],,,{8}8/1,{16}4,5,3,4,
3,3h[8:1],{48},,,,,,{24}1b/8bz4[4:1],7/2,6/3,5/4,,,{8}3x,3x,{4}2xh[16:3],
{8}8/1,{24}5b/4bz8[4:1],6/3,7/2,{8}8/1,6x,6x,7x,7x,{16}1,1,
{8}8,{24}7b/8b-3-1-5[8:3],6/1,5/2,{4}4/3,{8},,2x-6[8:1],1,
2/8<4[4:1],7,{16}B5/E5,,,B2/E3,,,{8}B8/B7,{16}5/4,5/4,,6,
4,5,{8}3h[8:1],7<4b[8:1],{16}6,8,{4}7,{8}2-5[8:1],{16}3,1,
{4}2,{8}6-1[8:1],{16}7,5,{4}6,{8}3>8b[8:1],{16}2,4,
{4}3,{8}7-5-3[8:1],{16}6,8,{4}7,{8}2v5b[8:1],{16}3,1,
{4}2,{8}6-8-2[8:1],{16}7,5,{4}6,{8}3v8[8:1],{16}2,4,
{4}3,{8}7-1-6b[16:3],{16}5,5,{4}7,{8}2-5-3[16:3],{16}1,1,
{4}2,{8}6pp5b[16:3],{16}8,8,{4}6,{8}3-8-4[16:3],{16}1,1,
{4}3,{16}5,5,3,6,6,4,7,7,5,6,1,8,
3,4,{8}2,{32}7h[8:1]/E3,B3,B4,E5,,,,,3h[8:1]/E7,B7,B8,E1,,,,,{4}B7/E7/B6/B2/E3/B3/Cfh[2:1],
{16},,,,8,8,,7,,6,,5,,3,4,3,
5/2,5/2,,6/1h[16:3],,,{8}7,{24}4b/8bz4[4:1],7/3,6/2,5/1,{48},,,,{16}3xh[8:1],,,3xh[8:1],
{48},,,,,,{24}1b/5bz1[4:1],2/6,3/7,{8}4/8,3x,3x,4x,{4}4xh[16:3]/6xh[16:3],
{8}3/5,{24}4b/8bs4[4:1],3/7,2/6,{8}1/5,6x,6x,7x-4-1-5[8:3],{4}7xh[8:3],
{16},,,,7b,,,3b/1b,,,{8}5b/4b,{16}6,3,,5,
4,6,{8}3,7/8h[8:1],{16}6,1,{8}6,5/2,4/3h[8:1],{16}6,5,
{8}6,4/7,3/8h[8:1],{16}2,1,{8}2,8/3h[8:1],{16}7,4,6,3,
5,2,{8}4,{16}5b/1b,5/1,,6/2,,,7b/3b,3/7,,4/8,,,5b/1b,
5/1,,6bxh[16:7]/2bxh[16:7],{4},,{24}6/2,5/1,4/8,3/7,2/6,1/5,
{4}4pp7[8:3]/8pp3[8:3],4b/8b,{16},,,,6h[16:3],,,4,
{8}5,3>8[8:1],,5,6,{16}7,8,6h[16:3],,,1,
{8}8,2>5[8:1],{16}2,,,6,{8}6-1[8:1],7,6/2-4[8:1],3,
2/8-4[8:1],7,{16}8/1,,,3,{8}3,{16}6,6,4,5,,2,
{8}1,3/8,{4}7bx<4[8:1]/2bx<7[8:1],2/7-3[8:1],{16}7,,,1,
{8}1,8/2,3/7,5/1,3/6,{16}4,6,5h[16:3],,,7,
{8}8,1/6,{16}5/2h[16:3],,,4,{8}3,5,{16}7,6,7,6,
7,6,{8}7,{16}3,5/3,,7,{8}7/1,{16}2,3,2,3,{8}2,
{16}6,5,{8}6h[4:1],{32},,,,8,1,2,3,{2}4/8z4[8:21],
{8},,,,,,,,,,,,,,,8-4b[8:1],
E
