&title=運命の羅針盤に導かれて
&artist=打打だいず
&first=1
&des=そっと背中を押す、運命が導く場所へ。
&lv_5=13
&des_5=そっと背中を押す、運命が導く場所へ。
&inote_5=
(180){4}D4,E5,D6,E3,
C,E7,{2}E1,
{4}E8,E2,,,D6,
E5,D4,E7,
C,E3,{2}E1,
{1}2qq5[12:7]*<5[12:7],
{4}4h[4:1],6h[4:1],2h[4:1],7<5[6:1],
{2}1>3[6:1],{4}6h[4:1],2h[4:1],
8h[4:1],2>4[6:1],{2}8<6[6:1],
{4}4xh[4:1],6h[4:1],2,5xh[4:1],
3h[4:1],7,{2}4x>8s4[4:5]/8x<4z8[4:5],
{4},,,,,,,,,,1,
2,
3qq4[3:2],5,,,8,
7,6pp5[3:2],4,
,,1,2,
3qq5[3:2],6,,,8,
7,6V48[12:5],3,
,1x>1[0.3333##2.1176],(170)8x,7x,
6xh[4:1],,,1x>1[0.3529##2.2159],
(165)8x,7x,6xh[#0.3636379],(160),
,1x>5[0.375##1.2632],(142.5)7x,6x,
5xq1[0.4211##1.2857],(140)3x,2x,1xq5[0.4286##1.2414],
(145)7x,6x,5x-2[0.4138##1.1966]*-8[0.4138##1.1966],(117),
{12},,,,,,(180){6}1b,{12}5,3x,,4,
{6}5,{12}5,3x,6,4,{4}5-7[8:1],{12}5x,,3,
{6}3,{12}7,4x,6,3,{6}5,{12}4,5x,,3,
{6}5,{12}6,4x,5,3,{4}6-8[8:1],{12}6x,,2,
E8,E7,E6,E2,E3,E4,{6}6,{12}4,7x,,3,
{6}6,{12}2,5x,3,6,{4}4-2[6:1],{12}4x,,6,
{6}6,{12}1,7x,2,6,{6}3,{12}6,4x,,7,
{6}3,{12}6,2x,5,1,{4}6b,3/7b,
8b/2>6[4:1],C,7h[6:1],5,
4qq5[12:5],7,8-4-7-5[3:2],8,
3,2,3h[6:1],4h[6:1],
5h[6:1],6h[6:1],4>8[4:1],C,
7<3[4:1],C,2h[6:1],4,
5pp4[12:5],2,1-5-2-4[3:2],1,
6,7,6h[6:1],5h[6:1],
4h[6:1],3h[6:1],{12}7,2,6,3,5,4,
6,3,7,1>4[8:1]*<6[8:1],,,{4}1,{12}5x,,2,
{4}8p6[12:5],{12}2,,3,{4}3,4h[6:1],
6h[6:1],8<5[8:1]*>3[8:1],8,{12}4x,,7,
{4}1q3[12:5],{12}7,,6,{4}6,5h[6:1],
4h[6:1],5,{12}6xh[3:2]/2h[4:1],,,,,1<3[3:1],
,,{6}1,{12},,7xh[3:2],,,,,2<4[3:1],
,,{6}2,{12},,{4}8xh[4:1],{12}3,3,5,
{4}5/2,{12}6,6,4,{4}4/7,{12}4,4,6,
6,3,{6}3/7s3[4:1],,,,,{2}E1,
C,
E5,5h[2:1],
4h[2:1],5w1b[2:1],
{4},,7/1,{12}2,,2,
{6}5,{12}5,3,,3,{6}7,{12}7,2-5[8:1],,,{4}2/8,
{12}7,,7,{6}4,{12}4,6,,6,
{6}2,{12}2,7-4[8:1],,,{4}7/2,{12}3h[6:1],,5,
{6}5h[6:1],{12}1,1h[6:1],,7,{6}7h[6:1],{12}4,4-8[8:1],,,{4}4/5,
{12}6h[6:1],,1,{6}1h[6:1],{12}6,6,,2,
7,3,6,4-8[8:1],,,{4}4/6,{12}7<5[12:1],,7,
{6}1>3[12:1],{12}1,6<1[8:1],,6,{6}4,{12}4,8-4[8:1],,,{4}8/2,
{12}2>4[12:1],,2,{6}8<6[12:1],{12}8,3>8[8:1],,3,
{6}5,{12}5,1-5[8:1],,,{4}1/7,{12}6<8[8:1],,6,
{6}4>2[8:1],{12}4,5-1[8:1],,5,{6}4,{12}4,8-4[8:1],,,{6}8/3,
{12}3,5,,5,{6}4,{12}4,6,3,7,
2,6,1,7,1,8,2,3,4,7,6,5,
1,2,3,6/4p7[4:1],,,{4}7>3[4:1],6,
{12}7,6,5,2,3,4,8,7,6,3/5q2[4:1],,,{4}2<6[4:1],
3,{12}2,3,4,8,7,6,
2,3,4,7/5p8[4:1],,,{4}8>4[4:1],7,
{12}7,6,5,1,2,3,8,7,6,1/5,8,7,
6,5,4,7/3,6,5,3,5,3,6,4,6,
5-7[12:1],7,4,5-3[12:1],,,{4}5-1b[8:1],5,
{12}3,5,2,6,4,7,4<6[12:1],6,3,4>2[12:1],,,{4}4-8b[8:1],
4,{12}3,4,2,6,5,7,
3,5,2,7,8,6,2,1,3,7,1,6,
3,5,1,6,4,8,4<7[6:1],6,2,4>1[6:1],,,{4}4-8b[8:1],
4<8s4>8z4[4:23],,,,A5,
,,A6,
,,A7,
,,{2}A8,
{4},A1,,,A2,
,,A3,
,,{2}5xh[2:3],
{12}E2,E3,E4,E5,E6,E7,{2}E8,
4xh[2:3],{12}E8,E7,E6,E5,E4,E3,
{2}E2,{4}6xh[4:3],{12}E5,E4,E3,
{4}E2,3xh[4:3],{12}E5,E6,E7,E8,,,{2}7x-3-7[1:1],
3xw7[2:1],
,D1/A1/A8,
{12},,,,,,,,,4,,5,
{4}3>8[4:1],8<5[4:1],5>1[12:5],7,
,6,{12}3b,5,3,6,4,6,
{4}B1/B2f,{12}6b,4,7,3,5,2,B8/B7f,,,4b,
6,2,5,3,7,{4}B1f/B8,6/4b,
7/3b,8/2b-5b[8:1],2/7-3[8:1],7/1-5[8:1],
1/7-4b[8:1],7/2-7[8:1],2/5-1[8:1],5/4,
3h[4:1],7-3[8:1],{6}7/3p6[4:1],{12}2,2h[4:1],,,,,,{4}7<4b[8:1],
7/2-6[8:1],2/8-4[8:1],
8/2>5b[8:1],2/7-2[8:1],7/4-8[8:1],4/5,
6h[4:1],2-6[8:1],{6}2/6q3[4:1],{12}7,7,,,{4}5h[4:1],
3h[4:1],7<5[8:1],7/1>3[8:1],
1/8-4[8:1],8/4<8[4:1],8pp5[2:1],2,
3,4,5/3,6h[6:1],
3/7h[6:1],2/8h[6:1],2>4[8:1],2/8<6[8:1],
8/1-5[8:1],1/5>1[4:1],6,7,
{12}6,1,7,2,8,3,5,2,6,3,7,4,
6,3,7,2-5[8:1],,,{4}2-8[8:1]/7-3[8:1],2/7<4b[8:1],
2-4[8:1],7-4[8:1]/2-7[8:1],2/7>4b[4:1],5,
5h[4:1],2-6[8:1],{6}2/6V42[4:1],{12}7,7h[4:1],,,,,,{4}2-5[8:1]/7-5[8:1],
2/7-1[8:1],7/2-6b[8:1],
7-4[8:1]/2>4[8:1],7/2v5[8:1],2/7-2b[8:1],7/4,
3h[4:1],7-3[8:1],{6}7/3V57[4:1],{12}2,2,,,{4}3,
7,4>2[8:1],4/6<8b[8:1],
6/5-1[8:1],5/1>5b[4:1],8,7,
5<7[8:1],5/3>1b[8:1],3/4-8[8:1],4/8<4b[4:1],
1,2-6[8:1],2/7V53[4:1],3V17[4:1],
7<3[4:1],3>7[4:1],7<3V17V53b[4:7],3V17V53[2:3],
{1}Cf,
{4},,,,,,,3/7h[6:1],
8,7,6pp5[3:2],4,
,2h[6:1],1,2,
3qq4[3:2],5,,7h[6:1],
8,7,6pp4[3:2],3,
,2h[6:1],1,2,
3V51[12:5],6,,8<8[0.3333##2.1176],
(170)1x,2x,3x,3x,
,8x<8b[0.3529##2.25],(160)1x,2x,
3x,3x,,8x<4[0.375##1.2414],
(145)2x,3x,4xp8b[0.4138##1.2632],(142.5)6x,
7x,8xp4[0.4211##1.2632],2x,3x,
4xw8[0.4211##1.1966]*w8[0.4211##1.1966],(117),,,(165){1}B8/B7/B1/B2/E1f/Ch[1:3],
E
