&title=Azathoth
&artist=USAO/Yuta Imai
&first=0.051
&des=Wabreak_kearbit
&lv_5=14
&des_5=Wabreak_kearbit
&inote_5=
(215){4}Cf,{8},D1,E8,C,E6,D5,
E4,C,,E2,{4}D1,1/8,
{1}Cf/B7/B2/B1/B8/B6/B5/B4/B3/1>8[2:3]/8<1[2:3],
,2-4-7[8:5],
8-5-2[8:5],
{4}E1,E2,E3,E4,
E5,E6,E7,E8,
1,1,8,8,
{8}1,1,8,8,{16}1,8,1,8,{4}1,
{8}7x/5bh[4:1],7x,7x,7x/8bh[4:1],7x,7x,7x/4bh[4:1],7x,
7x,7x/1bh[4:1],7x,7x,2bh[4:1]/7x-3[8:1],7x,{4}7bx,
{8}2x/4bh[4:1],2x,2x,2x/1bh[4:1],2x,2x,2x/5bh[4:1],2x,
2x,2x/8bh[4:1],2x,2x,7bh[4:1]/2x-6[8:1],2x,{4}2bx,
8,1,8,{8}1,1,
8,8,{16}1,8,1,8,1,2,3,4,5,6,7,8,
{8}1b/5b,,,D1,E8,C,E6,D5,
E4,C,,E2,{4}D1,8/1,
2-4[8:1],1-5[8:1],8-4[8:1],7-5[8:1],
3-1[8:1],6-8[8:1],{8},,4/5,4/5,
{4}6/3>1[8:1],3/5,3/6<8[8:1],6/4,
{8}1/2,{16}2,1,{8}2,3/8,{4}1/2,8/1,
{8}7-5[8:1],8,7,1,2-4[8:1],1,{4}2,
{8}6-8[8:1],8-2[8:1],2-4[8:1],4-6[8:1],{16},,,,,,3x,2x,
{4}7/1x-5[8:1],1/7-2[8:1],7/3,{8}3/5-1[8:1],6/4,
{4}5/7-3[8:1],8-4[8:1],{2}1-5[8:1],
{4}4/3h[4:1],{8}8,5,{4}5/6h[4:1],{8}1,4,
{4}4/3h[4:1],8,{12}5x/6x,6x/5x,6x/5x,4x/7x,,,{4}1w5[8:1],
1b,8w4[8:1],8b,
1<6[8:1]/8>3[8:1],1b-5[8:1]/8b-4[8:1],{2}1b/8b,
{8}2x/1bh[4:1],2x,2x,2x/4bh[4:1],2x,2x,2x/6b,2x,
7x/8bh[4:1],7x,7x,7x/5bh[4:1],7x,7x,7x/3b,7x,
2/6,2/6,1/5,5/1,8/4,8/4,{16}4qq8[4:3]/8qq4[4:3],1/5,6/2,7/3,
{1}4/8,
{4}2h[4:1],7-1-5-3[8:5],{8}4,4,3,3,
2,2,1,1,{4}8/7,6/1,
7h[4:1],2-8-4-6[8:5],{8}5,5,6,6,
7,7,8,8,{4}1/2,3/8,
{8}3/4,4,{4}4/3v8-2-5[2:1],{8}5,5,6,6,
7,7,8,8,{4}8/1,2/7,
{8}7-4[8:1],5,{4}7,{8}2-5[8:1],4,{4}2,
1-7-3-5[2:1]/8-2-6-4[2:1],8/1,{8},,,,2-5[8:1],
1,2,6,4-1[8:1],5,4,6,
8-5[8:1],7,8,6,4-7[8:1],5,{4}4,
{8}6-1[8:1],5,6,2,8-5[8:1],1,8,2,
4-1[8:1],3,4,2,8-3[8:1],1,{4}8,
{8}1>4[8:1],4,{4}1,{8}8<5[8:1],5,{4}8,
{8}2-4[8:1],4,{4}2,{8}7-5[8:1],5,{4}7,
{2}B7/B6/E6/E8f,D1/A1/D2/A2/B2/C/A3/B3f,
Cfh[2:1],B1/B3/B5/B7,
{1}2-5-7-3[8:5],
7-4-2-6[8:5],
1s5[16:9]/8z4[16:9],
2s6[2:1]/6s2[2:1],
{4}C,{8}E1,B8,{4}B7,E6,
E5/B4,{8}E3,B2,{4}B1,{8}B8/B7,B3,
E6,B1/B2,E8,B3/B4,{4}E7h[1:1]/B7h[2:1]/B6h[4:3],{8}B1,B2,
{4}E4,E3,{2}E2,
{4}3h[1:1],B3,{8},E4,{4}B4,
6h[1:1],{8}B6,B5,,E6,{4}B5,
2h[4:3],B2,{8},B3,,,{4}2/3,
3/4,{2}4/5,
{4}6h[2:1],{8}5,5,{4}4h[2:1],{8}5,5,
{4}6h[2:1],{8}4,4,{4}3h[8:3],{8}4,4,
2,5,1,6,{4}8,1/6,
{1}2pp4>3-8[2:1]/7qq5<6-1[2:1],
{8}2x/4bh[4:1],2x,2x,2x/1bh[4:1],2x,2x,2x/5bh[4:1],2x,
2x,2x/8bh[4:1],2x,2x,7bh[4:1]/2x-6[8:1],2x,{4}2bx,
{8}7x/5bh[4:1],7x,7x,7x/8bh[4:1],7x,7x,7x/4bh[4:1],7x,
7x,7x/1bh[4:1],7x,7x,2bh[4:1]/7x-3[8:1],7x,{4}7bx,
2/4,3/5,4/6,{8}7/5,7,
2/8,2,5/3,5,6/8,8,1/5,5,
{1}2>7[1:1]/6<3[1:1],
{8},,,,,3/1,2/8-3[8:1],1/7,
{4}8/6-1[8:1],6/4-1[8:1],4/8-6[8:1],8/2-5[8:1],
2/4-7[8:1],4/1,2x/6x,{8}8x/7x,{16}6x/1x,5x/2x,
{4}4x/3xv8[8:1],3/6v1[8:1],6/2v5[8:1],2/8<5[8:1],
8>3[8:1],8-4[8:1],{16},,,,5/1,6/2,{8}7/3,
{4}4x/8x,6/4-2[8:1],4/1-5[8:1],1/7-3[8:1],
7/2-5[8:1],2/6-8[8:1],6/3,{8}3/1-5[8:1],8,
1/7-3[8:1],6,7/1-5[8:1],2,{4}1/7,{8}8/4,4/8,
{4}4/8h[4:1],2h[4:1],{2}6h[4:1],
{1}4h[4:7]/5h[2:1],
{8}E6,B6,B7,E8,8xh[4:1],{16},,,,4/8,3/7,
{8}6/2-5[8:1],1,2/7-4[8:1],8,{4}7/3-8[8:1],3/6-1[8:1],
6/2-4[8:1],2/5-1[8:1],5,{16}8/4,3/7,2/6,1/5,
{4}4/8-3[8:1],8/4-1[8:1],4/6-8[8:1],6/2-5[8:1],
2/7-3[8:1],7/1-6[8:1],1/8-3[8:1],8,
{8}2/4,3,5/7,6,{4}7/1,{16}8/2,,,1/3,
,1h[16:5]/3h[16:5],,,,,,,{2}3h[8:3]/5h[8:3],
{8}5h[4:1]/7h[8:23],,,6h[4:1],,,{4}8h[4:1],
{8},1h[4:1],,,2h[4:1],,,3h[4:1],
,,{4}4h[4:1],{8},5h[4:1],,,{4}6,
6,7,{8}7,{16}8,1,
{8}8,2,2,3,3,4,{16}4,6,5,6,
{8}5,7,7,8,8,1,{16}1,2,3,4,
5,6,7,8,{32}1,2,3,4,5,6,7,8,1,2,3,4,5p2[8:7]*pp1[8:7],6,7,8,1,2,3,4,{8}5,
,,,,,,,,{4}3b/7b,
{8}7-5[8:1],7,4-2[8:1],4,8-4[8:1],8,
1-5[8:1],1,7-4[8:1],7,2-5[8:1],2,,,6b-8[8:1],
5,6,4,3-1[8:1],4,{4}3,
7-5[8:1],8-4[8:1],1-3[8:1],1,
{8}7-5[8:1],8,7,1,2-4[8:1],1,2,8,
{16}7x,6x,{8}5x,{16}2x,3x,{8}4x,{16}7x,6x,{8}5x,{16}2x,3x,{8}4x,
7<4[8:1],8,7,1,2>5[8:1],1,{4}2,
8w4[8:1],8,1w5[8:1],1,
(220)8/2-8[8:1],2/7-3[8:1],7/3,{8}1/5,1/5,
{4}2/6-4[8:1],6/2-6[8:1],2/6,{8}4/8,4/8,
{4}5/1-7[8:1],1/5-1[8:1],1/5,{8}3/7,3/7,
{4}8b-4[8:1],1b-5[8:1],{2}2b-6[8:1],
(225){4}4,{8}8,1,{4}8,1/8,
{8}2,4,3,5,{4}4/6,5/7,
(230){8}7,5,6,4,{4}5/3,2/4h[1:1],
1b,1b,{2}1b,
(240){8}E2,E5,E3,B6,{4}A4,E8,
E4h[2:1],{8}E8h[4:1],,{2}Cf,
{4}5bx/2bx>5b[8:1],6bx/2bx-8b[8:1],2bx/7bx<4b[8:1],2bx/7bx-1b[8:1],
7bx/3bx,4bx/8bx,{8}8bx-5b[8:1]/4bx-1b[8:1],4bx/8bx,{4}4bx/8bx,
{8}2bx>5b[8:1],6bx<1b[8:1],2bx,6bx,{4}2bx-6b[8:1],2bx/8bxV64b[4:1],
4bxV28b[4:1],8bxw4b[4:1],{8},,,,1bx/5bx,
1bx/5bx,{4}1bx-3b[8:1]/5bx-7b[8:1],5bx/1bx,{8}4bx-1b[8:1]/8bx-5b[8:1],8bx/4bx,
{4}8bx/4bx,{8}2bx-7b[8:1]/6bx-3b[8:1],6bx/2bx,{4}6bx/2bx,1bx/5bx,
{8}7bx,8bx,7bx,8bx,{4}7bx/8bx,{8}7bx/6bx,7bx/6bx,
{4}7bx/6bx,7bx/8bx,{2}8bx/1bx,
5bh[8:3]/1bh[8:3],{8}1b-7b[8:1],5b,1b-3b[8:1],5b,
1b-7b[8:1],5b,1b-3b[8:1],5b-7b[8:1],1b-5b[8:1],5b,{4}1b,
{8}8b-2b[8:1],4b,8b-6b[8:1],4b,8b-2b[8:1],4b,8b-6b[8:1],4b-2b[8:1],
8b-4b[8:1],4b,{4}8b,{8}5b/1b,1b/5b,,,{4}8b/1b,
{8}7b/1b-5b[8:1],1b,1b/7b-3b[8:1],7b,7b/2b-6b[8:1],2b,
2b/8b-4b[8:1],8b,8b/3b-7b[8:1],3b,3b/6b-2b[8:1],6b,{4}6b,
{8}1bx/5bx,1bx/5bx,2bx/6bx,2bx/6bx,{4}3bx/7bx,{8}4bx/8bx,4bx/8bx,
{1}4bx-2-7b[4:3]/8bx-6-3b[4:3],
B7f/B3f/C,
E
