&title=Ange du Blanc Pur
&artist=Nanahira
&first=0.35
&des_5=Ryurai77
&lv_5=13+
&des=Ryurai77
&inote_5=(91)
{8},
{4},,1b>4[8:8]/8b,7,6,5,6,7,8b<5[8:8]/1b,2,3,4,3,2,
{4}1b-4[8:4]/8,{8}8,7,6,5,
{4}8b-5[8:4]/1,{8}1,2,3,4,
{32},
{8}1bw5[8:11],
{32},,,{8},{1},,,{8},,,{32},,,
{4}1b,
{32},{4},,,,1b,,,,,,,
(182)
{12}5b/4b,,,4,5,3,3/5,,,3/5,,,4b/5b,,,5,4,6,6/4,,,6/4,,,
3b/6b,,,4,5,3,3/5,,,3/5,,,3b/6b,,,5,4,6,6/4,,,6/4,,,
{12}3/6,,,4,5,4,3/6,,,5,4,5,3/6,,,4,5,4,3/6,,,3/6,,,
3/6,,,4,4,4,3/5,,,5,5,5,6/4,,,4,4,4,3/5,,,3/5,,,
{16}3x,4,3,4,3,,5x,6,5,6,5,,
{16}1x,8,1,8,1,,4x,5,4,5,4,,
{16}5x,6,5,6,5,,3x,4,3,4,3,,
{16}4x,7,4,7,2x,5,2,5,
{16}2x,1,2,1,2,,8x,7,8,7,8,,
{16}1x,8,1,8,1,,2x,7,2,7,,,
{16}4x,5,4,5,3x,6,3,6,2x,7,2,7,1x,8,1,8,2x,7,2,7,3x,6,3,6,
{4}4xb/5xb,,
{8}4,4,5/3,4,,4,5/3,4,5,5,6/4,5,,5,6/4,5,1,1,8/2,1,,1,8/2,1,8,8,7/1,8,,8,7/1,8,
{8}4,4,6/3,4,,4,6/3,4,5,5,6/3,5,,5,6/3,5,1,1,7/2,1,,1,7/2,1,8,8,7/2,8,,8,7/2,,
{4}1-4-8-5[4:5]/8,7,6,5,6,7,
{4}6-1-4-6[4:5]/4,3,2,1,2,3,
{4}E8/B7/B6/E6/B8/C/B4/E4/B3/B2/E2,,,,
{4}E1/B8/B7/E7/A6/C/A3/E3/B2/B1,,,,
{4}E8/B7/B6/E6/C/E4/B3/B2/E2,,
{4}E8/B8/B1/E2/C/B5/B4/E4/E6,,
{4}E8/B7/B6/E6/B8/B1/B2/C/E4,,
{4}E1/B8/B7/E7/A6/C/A3/E3/B2/B1,,
{8}1-5[60.66#16:1],1,8,2,,7,1x,7,
{8}8-4[60.66#16:1],8,1,7,,2,8x,2,
{8}1-5[60.66#16:1],1,8,2,,7,1x,7,
{8}8-4[60.66#16:1],8,1,7,,2,8x,2,
{8}2-5[60.66#16:1],2,8,2,,8,2x,8,
{8}7-4[60.66#16:1],7,1,7,,1,7x,1,
{8}2-5[60.66#16:1],2,8,2,,8,2x,8,
{8}7-4[60.66#16:1],7,1,7,,1,7x,,
{4}1>8[4:5]/8,8,8,8,8,8,
{4}8<1[4:5]/1,1,1,1,1,1,
{4}1/8,2/7,3/6,4/5,5/4,6/3,7/2,8/1,
{8}3,3,6,6,2,2,7,7,
{32}1,2,3,4,5,6,7,8,1,2,3,4,5,6,7,8,1,2,3,4,5,6,7,8,
{4}1b,
{8}2b/7b,,1-4[4:1],1,1,,8,,7/2,,8-5[4:1],8,8,,1,,
{8}2/5,3,7/4,6,2/5,3,7/4,6,3/5,3/5,4/6,4/6,{16}3,5,3,5,4,6,4,6,
{8}2-4[121.33#16:1]/7,2,2,7-5[121.33#16:1]/2,7,7,2/7,2,
{16}2b,7,3,6,2,7,3,6,2,7,3,6,2,7,,,
{16}4b,5,4,5,3,6,3,6,2,7,2,7,1,8,1,8,
{16}3b,7,3,7,3,7,3,7,2b,6,2,6,2,6,2,6,
{16}5b,7,5,7,1,8,1,8,2,4,2,4,1,8,1,8,
{16}2b,6,2,6,2,6,2,6,3b,7,3,7,3,7,3,7,
{16}8b,7,8,7,3,4,3,4,2,1,2,1,5,6,5,6,
{16}8b,7,1,6,8,7,1,6,8,7,8,7,8,7,8,7,
{16}2b,1,3,8,2,1,3,8,2,1,2,1,3,8,4,7,
{16}5b,6,5,6,5b,6,4,5,3b,4,2,6,5b,7,4,5,
{16}2b,4,3,5,4,6,5,7,1,8,3,4,1,8,5,6,
{16}2b,6,2,6,2,6,2,6,3b,7,3,7,3,7,3,7,
{16}3b,4,2,4,3,4,2,4,1,5,2,5,3,6,4,6,
{16}4b,8,4,8,3b,6,3,6,1b,4,1,4,3b,6,3,6,
{16}2b,1,3,8,2,1,3,8,2,1,2,1,2,1,3,8,
{16}4b,7,4,7,2b,5,2,5,1b,4,1,4,3b,6,3,6,
{16}2b,7,2,7,2,7,2,7,1b,4,3,8,5,6,2,7,
{16}1b,8,1,8,2,7,2,7,3b,6,3,6,4,5,4,5,
{16}4b,4,4,4,4b,4,4,4,4b,4,4,4,4b,4,4,4,
{16}4b,4,4,4,4b,4,4,4,4b,4,4,4,4b,4,4,4,
{16}4bx/5bx,
,
E
