&title=Blazing:Storm
&artist=かゆき
&first=0.23
&des=Caerulea
&des_5=Caerulea
&lv_5=14
&inote_5=(165){16}4,3,4,3h[16:3],,,6,5,6,5h[16:3],,,{8}8h[16:5],{16}1,2,
3,4,,5/7x,,8x/5,,1x/5>3-1<7[16:5],,,,,,,,,{4}6bh[8:9],
{8}4,4h[8:1],,3,{4}3h[8:1],
{8}2,2,{4}1>4[8:1],{2}6<1[8:1],
{4}3h[8:9],{8}5,5h[8:1],,6,{4}6h[8:1],
{8}7,7,{4}8<5[8:1],3>8[16:3],{16}E4,E3,E2,E1,
{4}4h[4:1],{8}8,1h[4:1],,5,{4}6h[4:1],
{8}2,3h[4:1],,6,{4}7-4[8:1]/3-8[8:1],3b/7b,
{8}2/6,{16}3,4,{8}5,7/3,{16}6,5,{8}4,1/2,{24}2,3,4,
{8}5,8/7,{24}7,6,5,4,{48},,,,{16}2x,3,2,3,2-8[8:1],3,2,3,
{8}2,7-4[8:1],{16}6,1,{8}7,2-6[8:1],3/8,{16}1/2,8,{8}7,
5<8[8:1],4x,{16}E6,E7,{8}E8,4>1[8:1],5x,{16}E4,E3,{8}E2,
7/8,6/1,{16}2,4,3,5h[16:7],,,{8}E5,E3,E1,
5/2,{16}4,3,5,3,4,2h[16:3],,,{8}8,{16}7-1[8:1],3,7,3,
{8}7,2-5[8:1],{16}3,8,{8}2,7-3[8:1],6/1,{16}8/7,1,{8}2,
4>1[8:1],5x,{16}E4,E3,{8}E2,5<8[8:1],4x,{16}E6,E7,{8}E8,
2/1,3/8,{16}7,5,6,4h[16:7],,,{8}E5,E7,E1,
4/7,{16}5,6,4,6,5,7h[16:7],,,{8}E2,E3,E4,
6pp8pp2[8:3],6,{16}4,4x,,,{8}3xh[16:3],,,8h[4:1],
3qq1qq7[8:3],3,{16}5,5x,,,{8}6xh[16:3],,,1h[4:1],
6,6,{16}7,2,,8,3V15[4:1],,,4h[16:3],,,,,{8}6,
6,{16}2,7,,1,6V84[4:1],,,5h[16:3],,,,,{8}2,
2,{16}3>6[8:3],6,,,5h[8:1],,,5h[8:1],,,{8}5h[8:1],
4,4,6<3[8:3],6,{16}4h[8:1],,,4h[8:1],,,{8}4h[8:1],
5,{16}5,3,,3,{8}2/6,{16}7s3[4:1],,,4h[8:1],,,{8}4h[8:1],
,2x/5x,{16},2x/6x,,,{8}2x/7x,{16}8,1,{8}7,{16}1,8,
2,4,2,4,{8}2h[8:1],{16}5,3,5,3,{8}5h[8:1],{16}4,6,4,5,
4,3,4,2,4,1,4,8,4,7,4,6,D4,D3,D2,D1,
6x,8x,6x,8x,{8}6h[8:1],{16}1,7,1,7,{8}1h[8:1],{16}8,2,8,1,
8,7,8,6,8,5,8,4,8,3,8,2,D8,D7,D6,D5,
{4}4xh[4:1],{8}2,{16}5,3h[16:3],,,{8}B1/B2,{4}4q5[8:3],
{2}7xh[2:1],{16}1,2,3,4,8,7,6,5,
{4}2/4<1[4:1],4/7h[8:1],{8},2-4[8:1]/5-1b[8:1],3/6,5/2,
,7/5,6,{16}4,6h[16:3],,,{8}5>8[4:1],7,5/2h[4:1],
{16},,,,7,3,7,3,6,2,6,2,{8}5w1[8:1],4/6,
{16},,,,3-7-2[4:1],4,{8}5,8h[4:1],,,7/3,
{4}6-1[8:1],{8}5/6,{16}3,3,,5,{8}5,{16}2,4,1,5,
{4}3-8[8:1],{8}4/3,{16}6,6,,4,{8}4,{16}7,5,8,4,
{8}7-5[8:1],3,7-1[8:1],2,7-3[8:1],4,7,2,
1/5,{16}4,3bx/5x,,6,{8}5x/7bx,8/4,{16}5,6bx/4x,,3,{8}4x/2bx,
1/5,{16}2,6,,4,{8}8,8/4,{16}7,3,,5,{8}1,
{1}7bp5[2:3]/2bq4[2:3],
,3V58[2:3]/6V41[2:3],
,6q5[2:1]/3p4[2:1],
{16}A7,A6,A5,A4,A3,A2,7x,6x,5x,4x,3x,2x,1x-5[8:1],8x,7x,6x,
{4}5x/1bx,4h[8:1]/7h[8:1],{8}6/4,4/6,2/4,2/4,
{16}1/5,,,3/7,,,{8}2/6,{2}8b-4[8:1]/4b-8[8:1],
{8}1/2,B3/A3,{16}5,4,{8}5,7/4,{16}5>7[8:3],3,,7,{8}5,
6h[4:1],,,5/6,A7/B7,{16}1,8,{8}2h[8:1],{16}8,1,
{8}7h[8:1],5,{16}5,7,3,5,4,6,2,4,{8}1,1,
3/7-4[8:1],6,7/3-7[8:1],2,3/5-1[8:1],6,{4}5b,
{8}7/2,A6/A3,{16}3,1,{8}4,{16}6,8,{8}5,{16}2,7,2,7,
{8}6/3,A7/A2,{16}2,4,{8}1,{16}7,5,{8}8,{16}3,6,3,6,
{4}4z8[4:1],8z4[4:1],{2}4>1[16:3],
{16}7,7,1,6,6,2,5,5,3,4,3,4,2,5,2,5,
{8}8/7,B6/A6,{16}4,5,{8}4,2/5,{16}4<2[8:3],6,,2,{8}4,
3h[4:1],,,4/3,A2/B2,{16}8,1,{8}7h[8:1],{16}1,8,
{8}2h[8:1],4,{16}4,2,6,4,5,3,7,5,{8}8,8,
6/2-5[8:1],3,2/6-2[8:1],7,6/4-8[8:1],3,{4}4b,
{16}7,6,5,1,2,3,8,7,6,2,3,4,6,7,8,1,
{8}3h[4:1],4,{16}5,4,6,5,7h[4:1]/E6,E7,E8,E1,{4}E2h[8:1],
{8}3/4,5/6,7/8,1/2,{16}3,4,{8}3,{16}6,5,{8}6,
{4}5h[8:1]/7h[8:1],{16}3,4,2,5h[16:3],,,8,1,2,3,4,5,
6/8-4b[8:1],,,5,{8}8,3s7s3[2:1],,,,,,,{4}E6,
E5,E4,
{8}1/2,{16}5p4>1[1:1],3,,7,{8}5/7bh[8:7],,,,,,,,,{2}E1h[4:1],
{8}8/7,{16}4q5<8[1:1],6,,2,{8}4/2bh[8:7],,,,,,,,,{2}E1h[4:1],
{4}4>1[8:1],{16}8,7,6,5,{4}4x-7[8:1]/8x-3-5[4:1],4/8,
{16}8h[8:1],,,6h[8:1],,,{8}7h[8:1],{16},5h[8:1],,,6,4,6,4,
{8}7h[8:1],{16}4,5,{8}2h[8:1],{16}4,3,{8}5h[8:1],{16}1,7,{4}2h[8:1],
{32}A8,A1,A2,A3,A4,A5,A6,A7,8x,1x,2x,3x,4x,5x,6x,7x,{4}8bxv5[8:1]/4bxv1[8:1],{16}4b/8b,Cf,,,{4}3/7h[16:3],
{8}7/5<8[4:1],4h[4:1],{16},,,,5,4,3,2,
1-4[8:1],,,8,{8}1,7h[4:1],,4h[4:1],{16}5,6,7,8,
4x,1,4x,8,A3,A7,A2,A6,5x,8,5x,1,A6,A2,A7,A3,
{8}8-6[8:1]*-3[8:1],7,{4}8-4[8:1],{8}8/4,2,{16}5,6,7,8,
1-6[8:1]/5-2[8:1],,,4,{4}5/1,{8}7,{16}5,6,{8}4h[8:1],5<4[2:1],
,E4,E3,E2,{4}E1,{16}6,5,7,4,
{8}8-5[8:1],7,8/4-1[8:1],3,4/7-2[8:1],6,7,3,
{16}3x,4x,5x,6x,7x,8x,1x,2x,3x/8x,7x,6x,5x,4x,3x,2x,1x,
{8}8/4,6/5,{16}8,7,{8}1,1/5,3/4,{16}1,2,{8}8,
{16}5,6,5,6,1,8,1,8,3,4,2,5,1,6,8,7,
{8}7/8,6/1,{16}6,5,{8}7,2/1,3/8,{16}3,4,{8}2h[4:1],
,1p8[8:3],8,7h[4:1],{16},,,,5-3[8:1],6,7,8,
{8}5-1[8:1],8,5,7,8-4[8:1],2-5[8:1],8,2,
{16}6x,7x,8x,E5,E6,E7,3x,2x,1x,E5,E4,E3,7,6,5,4,
{8}2x-5[8:1]/6x-2[8:1],3,{4}2/6<1[8:1],{8}6>3[8:1],5,{4}6,
{16}7,3,7,3,8,4,8,4,1,5,1,5,{8}1,1x-5[8:1]/4x-2[8:1],
,1b/4b,,8x-4[8:1]/5x-7[8:1],,8b/5b,,7x-5[8:1]/3x-5[8:1],
,7b-1[8:1]/3b-1[8:1],,3b/7b,,6/5q4[8:7]*<4[8:7],3/4,5b,
,,,,,,,,8/1bw5[8:1],
4/5bw1b[8:1],,Cf,
E
