&title=Now or Never!
&artist=鈴木このみ from the Ultra League
&first=0
&des=Ultra KuSA
&lv_5=13+
&inote_5=(188)
{1},,{8},,{16},6,5,4,{8}3,3-8[8:1],3,
5,5-2[8:1],5,7,7-4[8:1],7,1,1<3[16:5],1,,,,,
27,,6-8[8:1],5,4-2[8:1],,5-1[8:1],,
6-8[8:1],,4-2[8:1],,5-1[8:1],,6,,
2-4[8:1],,8-6[8:1],,1-5[8:1],,2,,
2-4[8:1],,8-6[8:1],,1-5[8:1],,2,,
18,,3-1[8:1],4,5-7[8:1],,4-8[8:1],,3,,1h[8:5]/5,,2,2>1[8:6],,,,,,,,,,,
1,1,1,1,1,1,1-5[8:1],1,1b,,
6h[4:1],,4,,5/3-5[8:1],,6h[4:1],,4,,35,,4/6-4[8:1],,2-8[8:1],,7-3[8:1],,3-7[8:1],,
1h[4:1],,8,26,,,35,,4/6-3[8:1],,2-7[8:1],,1h[4:1],,2-7[8:1],2,5h[4:1],,
3-6[8:1],,1h[4:1],,3-6[8:1],3,5h[4:1],,
2-7[8:1],,1h[4:1],,2-7[8:1],2,5h[4:1],,1,,,8h[4:1]/2h[4:1],,,73,,
6-8[8:1],5-3[8:1],6,5,,12,38,,
7-4[8:1],8-3[8:1],7,8,,45,3V16[4:1]/6,,6V83[4:1],,4,,
5,,8<5[8:1]*>3[8:1]/4,,,,84,,76,,3-6[8:1]/2,,
7-2[8:1],,8h[4:1],,7-2[8:1],7,4h[4:1],,
6-3[8:1],,8h[4:1],,6-3[8:1],6,4h[4:1],,
7-2[8:1],,8h[4:1],,7-2[8:1],7,4<3[16:8],,8,,,,,,45,,
3,3-8[4:1],3,3h[8:3],,,,,6,6-1[4:1],6,6h[8:3],,,,,
2,2-7[4:1],2,2h[8:3],,,,,45,45,,36,,18,18,,
7,7>3[8:3],7,7h[8:3],,,,,2,2<6[8:3],2,2h[8:3],,,,,
8,8p1[8:3],8,8h[8:3],,,,,18,27,,27,,
{16}4,5,4,5,4,5,
{8}3,3-8[8:1],3,7,7-4[8:1],7,2,2-7[8:1],2,6,6-3[8:1],6,
1-4[8:1],1,5-8[8:1],5,2h[4:1],,1,3/7h[4:1],,8,26,,,4/5,4/5-1[4:1],,,,,,
{32}1b/8b,27,36,45,{8},2b/7b,,
3-7[8:1],4,3/5-1[8:1],,8,,2>5[8:1]/7,,5,7,1-5[8:1],3,
7-3[8:1],,8>3[8:1],,5-1[8:1],6,7<8[16:5]/5,,2,,6V83[4:1]*V85[4:1],,6,,,,
3v8[8:1]/7v4[8:1],,3<6[8:1]/7,,1,2,7v4[8:1]/3v8[8:1],,7>2[8:1]/3,,5,,
46,37,28,,3v8[8:1]/7v4[8:1],,3<6[8:1]/7,,1,1,28,,
{16}3,4,2,,6,5,7,,
1,8,1,8,2>1[16:6],6,2,6,2b,,,,,,,,
{8}6-2[8:1],5,6/4-8[8:1],,1,,7<4[8:1]/2,,4,2,8-4[8:1],6,
2-6[8:1],,1<6[8:1],,4,3,2/4pp8[16:6]*qq8[16:6],,4,,,,12,,78,,
6v1[8:1]/2v5[8:1],,6>3[8:1]/2,,8,7,2v5[8:1]/6v1[8:1],,2<7[8:1]/6,,4,,
53,62,71,,65,,4v1[8:1]*v7[8:1]/3,,4b,,5v8[8:1]*v2[8:1]/6,,5b,,
4v1[8:1]*v7[8:1]/3,,4b,,65,,2-5[8:1]/4,,2/7-4[8:1],,7/3-8[8:1],,3/5<3[16:5],,
2,,4>6[16:5],,
7,,5,,1w5[8:1]/2,,1,,7/8w4[8:1],,8,,62,,
{16}17,2,3,4,8,7,6,5,2/4-8[8:1],,,,{8}3,,2-5[8:1],2,7-4[8:1],7,1>8[16:8],,8,,,,,,
1-5[8:1]/8-4[8:1],,1b/8b,,3-1[8:1],4,5-7[8:1]/3,,5/4-8[8:1],,
3-1[8:1]/4,,5-7[8:1]/3,,5/4-8[8:1],,43,,
7-5[8:1],,7/1-3[8:1],,1/8-4[8:1],,78,,
7-5[8:1],,7/1-3[8:1],,1/8-4[8:1],,78,,
18,,6-8[8:1],5,4-2[8:1]/6,,4/5-1[8:1],,65,,84,,26,2-5[8:1]/6-1[8:1],,26,,,
8,,8,1w5[8:1],8,1b,
