&title=もってけ!セーラーふく
&artist=神前暁/平野绫/加藤英美里/福原香織/远藤绫
&first=0.015
&des=有新人参加比赛丢4分半卡拉ok长曲
&lv_5=13+
&des_5=有新人参加比赛丢4分半卡拉ok长曲
&inote_5=
(150){4},,6b/5b,4/8-2v3[4:1],
{2}3-5[8:1],6xv5[4:1]/2xv5[4:1],
{8},3xh[4:1],,,{2}2bx-5[8:1]/1bx-5[8:1],
2-5[8:1]/1-5[8:1],8-4[8:1]/7-4[8:1],
{8}6/3,{32}E6/E4,B6/B3,,,,,,,{8}8,7bx/4xh[8:1],7,,1,
2/5h[8:1],2,,6,{32}6bx/E2,B1,B8,E8,,,,,{8}5x,4x,
{32}3x/E8,B8,B1,E2,,,,,{8}A5/B5f,2bx,1bxh[4:1]/8bxh[4:1],,,7bx/2bx,
5bxh[4:1]/4bxh[4:1],,,8/1,{16}2,4,2,4,{8}3-7[8:1],3,
5w1[8:1],5,{4}Cf/B7/B3/5-2-6-3-8-5b[2:7]*<5[2:7],{1},,,{4},,,{16},,{32}E3,
B3,B4,E5,{8}7b,7,{16}5,6h[16:3],,,{8}3,
3,{16}5,4h[16:3],,,{8}7,7,{16}5,6h[16:3],,,{4}4h[8:1],
3h[8:1]/5h[8:1],{16}2,4,2,4,{8}2,{16}5,3,
5,3,{8}5,{16}4,6,,6,{8}5h[32:1],5h[32:1],4/6,6/4,
7/3,{32}E7,B6,B5,E5,{4}2h[16:1],{8}3b/5b,{16}2,4,{8}2,5/3,
{16}6pp6[4:1]*qq6[4:1],4,{8}6,{16},,,,,,7,5,{8}7,{16}4,6,
3,5,3,5,{8}2,2,{16}8,1,{8}8,2,6,
{16}3,4,{8}3,{16}5w1[4:1],4,{8}6,,,,,{4}2/8,
3/7,{8}6b/5b,7,{16}4,6,4,6,
3,5,3,5,2,2,,4,3,5,3,5,2,6,2,6,
{8}1,1,2/8,2/8,{16}3,4,3,4,{8}3,{16}6,5,
6,5,{8}6,3,{16}5,5,2,6,2,6,1,7,1,7,
8,8,8,8,{4}8-5-2-6-3-8b[2:7]*>8[32:111],{1},,,{4},,,{16},,{32}E7,
B6,B5,E5,{8}1b,2,{4}2/4-6v8[8:3],
2,2,{8}2,7,{4}7/1v6-4[8:3],
7,7,{8}7,3,{4}3/8-2v5[8:3],
3,3,{8}3,6,{4}6/4-2v8[8:3],
6,6,{8}6,{32}1bx/7bx,6x/2x,5x/3x,4x,,,,,,,,,{4}5/3>8[4:1],
5,{8}5,6,{4}4/6v1[4:1],
4,3,{16}2,1,{8}2,8h[8:1],{16}5,7,
5>2[8:1],7,{8}4,6,6,7b/1b,7/1,{16}2,8,,8,
{32}2,3x,4x,5x,6x,7x,8x,1x,2x,3x,4x,5x,6x,7x,8x,1x,{4}2x/4q8[4:1],3,
2>5[4:1],7,6,7h[8:1]/3h[8:1],
4,6h[8:1]/2h[8:1],3h[8:1]/5h[8:1],4h[8:1]/6h[8:1],
{8}3/7,3,5,5-8[8:1],,2xh[8:1],,,4x/3x,
2-7[8:1],,2xh[8:1],,,7-2[8:1],7xh[8:1],
,,6,5-7[8:1]*-2[8:1],,,,8-5[8:1]*-3[8:1],
,,,,{4}2h[8:1]/7h[8:1],6h[8:1]/1h[8:1],
7h[8:1]/2h[8:1],8h[8:1]/3h[8:1],7h[8:1],{16}4,6,4,6,
5-8[8:1]*-3[8:1],5,5,5,,,,,{8}1bx/7bx,2,3/4,5,
{4}5>1[4:1]*>1[4:1],{8}6,6,,7,7,5,
{4}5V71[4:1]*V71[4:1],{8}4,4,,2,2,4,
{4}4,{8}5/3,3/5v8[4:1]*v2[4:1],,,,,,7/1,
6,5,{4}3bx/4,{8}2,2>5[4:1],
,,6,6-4-1[4:1],,7,,8<5[4:1]*>3[4:1],
,,,,{4}2b/6bpp5[4:3],{8}4qq5[2:1],4,
{16},,,,,,,,,,,,4x,6xh[8:1],,,3,
7,3,7,3,7,{32}E3,B3,B4,E5,{4}8b,5-3[8:1],
{8}7,7,,6,{2}6v5[4:1]/2v5[4:1],
{8},3xh[8:1],,1b,2b/8b,7/3,B6f/E6/E7,3b,
2b/4b-7b[8:1],1/5,,1,{4}8-5[8:1]*q5[8:1],8,
{8}4xh[8:1],{32}E2,B1,B8,E8,{4}3,{8}2b/6xh[16:3],,,6h[2:3],
,,{4}5h[16:3],{8},5h[16:3],,,4h[16:3],
,,4,7b/3b,{16}6,4,{8}6,8b/2b,
{16}3,4,{8}3,2b/6b,{16}3,5,{8}3,1b/7b,{16}6,5,{8}6,
{4}4b-2b[8:1]/8b-6b[8:1],8b/4b,{16}1,5,3,4,2,6,4,7,
5,8,4,5,3,6,2,7,1h[8:1],,,8,{8}2h[8:1],{16}1,3,
8,7,6,5,3,2,1,8,6,5,6,5,7,4,7,4,
8,3,7,3,6,2,5,2,4,1,7,5,6,3,4,2,
5,6,7,8,1,1,1,1,{4}8b/2b,{16}3,6,5,7,
4,5,3,6,{32}2b,1x,8x,7x,,,,,{16}5xh[32:1],B5,1xh[32:1],B1,6xh[32:1],B6,2xh[32:1],B2,
7xh[32:1],B7,3,6,2,7,1,8,3,4,2,5,1,6,5,7,
{24}4<2[4:1],8x,4x,8x,4x,8x,,,,,,,{8}6b,{16}3,3,5,6,7,8,
4bxh[16:1],7,3bxh[16:1],6,2bxh[16:1],5,1bxh[16:1],4,{32}8b,7x,6x,5x,4x,3x,{16}2xh[16:1],{8}8,{16}7,5,
6,3,4,2,8,1,7,5,{8}6h[8:1],{16}3,3,5,6,7,8,
2,4,3,6,5,7,1,8,2,3,4,6,7,8,4,3,
1/2xh[8:1],8,7,6,{8}5/3,{16}4,4,4,4,4,4,{8}4,5/3,
{16}4x,5x/3x,{8}6x/2x,{16}1,7,1,7,{48}8bp3p6[8:3],1x,2x,3x,4x,5x,6x,7x,8x,1x,2x,3x,{4}4xh[8:3],
{16},,,,5,4,6,3,4,2,6,1,7,2,8,3,
1,4,6,5,7-3[8:1],2,8,1,{8}7b,2,4,{16}3b,3,
5,5,{32}7x,8x,1x,2x,{8}3x/4b,5-1[8:1],6<4[4:1],5b/7bh[16:1],,,{4}8b,
{8}6b/2b,{32}E3,B3,B4,E5,{8}7b,6,{4}6/5qq1[8:3],
6,7,{8}7-4[8:1],2,{4}2/7qq1[8:3],
3,3,{8}3-7[8:1],8,{4}8/3pp2[8:3],
8,8,{8}8-4[8:1],1,{4}1/8qq3[8:3],
1,1,{8}1,{32}8bx/2bx,3x/7x,4x/6x,5x,,,,,,,,,{4}7/4v1[4:1],
7,{8}7-3[8:1],2,{4}2/7-1-5[8:3],
2,2,{8}2,{16}4,3,{8}4,2/5,
{16}3,4,{8}3,{16}5,4,6,3,{4}7xh[8:1],6xh[8:1]/2xh[8:1],
{32}1x,8x,7x,6x,5x,4x,3x,2x,1x,8x,7x,6x,5x,4x,3x,2x,{8}7b/1x,6<1[8:1],,2/6,
{4}4-8[8:1],{8}4/8,7-5-1[4:1],,1,2,3,
{4}4/8-6[8:1],{8}5,5-1[8:1],,5/6,7-4[8:1],2,
7,3>5[8:3],5,3,,4h[8:3],,,,3,
4,5,{4}2b/6bx-1[8:1],{8}8/6,2q8[4:1],
,,1,1-5[8:1],,1/2<6[4:1],,6>2[4:1],
,,{4}1-5[8:1]*-6[8:1],{8},,7/4pp2[8:3],4/7h[8:3],
,,,,1/8,1/8,{16}3,4h[8:1],,2,
5,3,5,3,6,4,6,4,{8}7b-5[8:1],5-1[8:1],7,3,
{4}2-6[8:1],{8}1/2,8-5-3[4:1],,8/3-7[8:1],2,1,
{4}8-3[8:1],{8}6/8,5-7-4[4:1],,5/4-8[8:1],3,2,
{4}1-5[8:1],{8}1/8,6<4[8:3],,6/2h[8:3],,,,5,
6,7,{4}1b/8bx-4[8:1],{8}8/2,3-5-1[4:1],
,,6,8-4[8:1],,8/2p6[8:1],,2/5<3[8:3],
,,,,{2}4bpp4b[2:1]*qq4b[2:1],
{8},,,,3/5,5/3,{16}6,4h[8:1],,7,
5,8,5,8,5,8,{32}4x-7[8:1],E4,B3,B2,{4}6b/E2,{8}1,8/2-5[8:1],
{4}3/7,{8}6,6,5/7-4[8:1],8/4<7[8:1],3/7>3[8:1],2,
1h[4:1],,,6/5-2[8:1],{4}4/7,{8}8,1/7-4[8:1],
{4}6/2,{8}3,3,4/2-5[8:1],1/5>2[8:1],6/2<6[8:1],7,
8h[4:1],,,7/5-1[8:1],{4}4/8,{8}7,6/8-4[8:1],
{4}1/5,{8}6,6,5/7-4[8:1],8/4<7[8:1],3/7>3[8:1],2,
1h[4:1],,,2/4-8[8:1],{4}5/1,{8}2,3/1-5[8:1],
{4}8/4,{8}3,3,4/2-5[8:1],1/5>2[8:1],6/2<6[8:1],7,
8h[4:1],{32},,,,,,,,E6,B5,B4,E4,{4}7b-1v3b[4:1],3-5b[8:1],
{8}2,2,{16},,1,8,2,4h[8:1],,1,5,3,{8}7w3[8:1],
,,,5/1,{4}7b/3b,{16}4/2<4[4:1],,,5,
{8}2,,,7,{16}3h[16:3],,,8,2,6,{8}4w8[8:1],
,,,2-5[8:1],8b/1b,7/2,,6-1[8:1],
5/4,3/6,,2-6[8:1],1b/8b,7h[4:1],,5,
{16}6,4,5,3,{8}4-8[8:1],2b,{4}4b/1b,{8}6x-1[8:1]/2x-5[8:1],3b/7b,
{4}6b/2b,{8}4x/8x,7,{16}3,6,2,6,{8}1-5[8:1],5>1[8:1],
1,6,{4}7-1-6-3-5b[4:5],
E
