&title=イケナイエトランゼ
&artist=緋月ゆい
&first=0.02
&des=ボス曲に倒されたプレイヤーを拾った私が、イケナイことを教え込む
&lv_5=13+
&inote_5=(218)
{4},,,,,,,,,
{12}45,,,3,,3,5,,5,
{4}4,6,3,
{12}7x,6x,5x,2x,3x,4x,8x,7x,6x,
{4}1x>4[8:1]/5x<8[8:1],1x/5x,,
7qq5[4:1],5,2,2pp4[4:1],4,7,
{32}74,,,,,,,,6,,,,,6,,,5,,,,,,,,
{4}7b/4b,5b/2b,,
{4}3<6[4:1],7,7,
6>3[4:1],2,2,
{12}2,,2,5,,5,{4}4,35,46,
{12}6,4,6,
{4}4>1[4:1],6,5,
4<7[4:1],2,3,
{12}4,,4,6,,6,2,,,{4}37,26,
15,
{4}1>4[4:1],4<7b[4:1],7,
8,17,26,
{12}3,,3,4,,4,5v8[6:1],,,7<4[8:1],,,7,,,B1/E2/E1,,,
6,,6,4,,4,5>2[6:1],,,1w5[6:1],,,C,,,,,,
{12}7,,5,6,,4,7,,,2,,4,3,,5,2-8[8:1],,,
{4}6-4[8:1],2-6[8:1],5pp8[4:2],
1x,2x,3x,
{12}4x/7x,,6,5,,7,8,,,4x/3x,,3,4,,2,1s5b[4:1],,,
{4}1pp1[4:2],,,,{64}E8,B7,,,,,,,,,,,,,,,
{4}2>6[4:1],6<2[4:1],,4-8[8:1]*-1[8:1],4,,
7<3[4:1],3>7[4:1],,5,
{12}2b,4,3,7b,5,6,1b,5,3,
(72.667)
{4}8bp3[16:1]*q5[16:1],{64}E1,C,E5,,,,,,,,,,,,,,
{36}D6,,,D5,,E4,D4,,,E6,,,E5,,B3,E4,,,
E7,,,E6,,,E5,,C,E4,,,E3,,,E2,,,
{12}8-2[12:1],2-5[12:1],6h[12:1],8qq4[6:1],6,7,8,{36},,D3,D2,,,{64}B2/B6,E2/E7,,,,,,,,,,,,,,,
{12}3h[12:3],B3,E2,6h[12:3],C,E1,5h[12:3],
{36}B6,,B7,E8,,,
{4}1xs5[4:1],1/6pp5-3>2-6b[4:2],6,2bhx[4:1],
{12},
(109)
{4}1q6[8:1]/7,
(218)
{4}6<1[4:1]/1,1>4[4:1],4q1[4:1],1>4[4:1],4<7[4:1],7,
8,35,1,
{12}E2,E3,E4,E5,E6,E7,E8,E1,E2,
{4}E3/6x-4[8:1],3x-6[8:1],7x-3[8:1],2xpp8[4:2],,7,7h[4:1],{12},,7x,8x-4[8:1],,,
8/6,,7x,8xb-4b[8:1],,,8,,,
{4}2-5[4:1],5-8[4:1],8-3[4:1],3-6[4:1],6-1[4:1],1,5,6,7p3[8:1]/3q7[8:1],B5,,
8>6[4:2],3,,1<3[4:2],
{12}6,,,,,,7x,,,
27,,1,8,,2,7,,3,6,,4>5[8:5],5<4[8:4],,,
{4},,,
{24}B1/B2,B8,B7,B6,B5,B4,E3,E2,E1,E8,E7,E6,
{4}E5/D5/A4/A5,8x/2x,
{24}8bx,7x,6x,5x,4x,3x,2x,1x,8x,7x,6x,5x,
1xb,,,,,,
4xb>1[6:1],5x,6x,7x,8x,1x,
{4}4xb<7[6:1],4xb,
{24}4bx,3x,2x,1x,8x,7x,6x,5x,4x,3x,2x,1x,
5xb,,,,,,
1xb<6[6:1],2x,3x,4x,5x,6x,
{4}1xb>4[6:1],1xb,
{24}8bx,7x,6x,5x,4x,3x,2x,1x,8x,7x,6x,5x,
{4}1xb>4[8:1]/4xb<7[8:1],1/4-8[8:1],,5>2[6:1]*p1[6:1],A5f,,
17,26,6h[4:1],4h[4:1],
{12}6,,6,4,,4,5-1[8:1],,,53,,,4x>8[4:1],,,{16}8xpp3[4:2]/4xpp7[4:2],7x,6x,5x,4x,,,,,,,,
,,,,
{8}7x<4[8:1]/1,,7,1x-5[8:1],,1,
{12}6bx,,7-5[8:1],8-4[8:1],,7x,8x,,,
3bx,,2-4[8:1],1-5[8:1],,2x,1x,,,
{4}3x,8w4b[8:1],
{24}B8,B1,B2,B3,B4,B5,E7,E8,E1,E2,E3,E4,
{4}E5/D5/A5/A4,1x/7x,
{24}1bx,2x,3x,4x,5x,6x,7x,8x,1x,2x,3x,4x,
8xb,,,,,,
5xb<8[6:1],4x,3x,2x,1x,8x,
{4}5xb>2[6:1],5xb,
{24}5bx,6x,7x,8x,1x,2x,3x,4x,5x,6x,7x,8x,
4xb,,,,,,
8xb>3[6:1],7x,6x,5x,4x,3x,
{4}8xb<5[6:1],8xb,
{24}1bx,2x,3x,4x,5x,6x,7x,8x,1x,2x,3x,4x,
{4}8xb<5[8:1]/5xb>2[8:1],8/5-1[8:1],,4w8b[6:1],Cf/B2/B6,,
82,73,3h[4:1],5h[4:1],3,3qq5b[4:2],6pp4b[4:2],6,,2x,
{12}8xbh[12:2]/6x,,4,{8}3,1bxh[128:48],,,
{24}3b,4x,5x,6x,7x,8x,{4}1x,
6x/4x,2bpp6[4:3]/8bqq4[4:3],,,,,
7x/1x,3bqq4b[4:2]`5bpp4[4:2],,,A4/D4/D5f,,
{12}1x/8x,,,
7,,7,5,,5,3,,3,1,,1,8,,8,2,,2,
{16}4x,5x,6x,7x,8x,1x,2x,3x,4xh[8:2],,,,
5x,6x,7x,8x,1x,2x,3x,4x,5x-1[8:1]/7-4[8:1],,,,75,,,,
{12}2,3,2,3>6[4:1]*p6[4:1],,,3xb/E1f/B1/B8,
