&title=ドルチェ・イマジネーション
&artist=黒うさぎ
&first=0
&des=taekoma
&lv_5=13+
&inote_5=(130)
{8},,,,
{8}3/6h[8:4],,,,5h[8:4],,,,4h[8:4],,{24}E5,E4,E3,E2,,,{8}2h[8:4],,E6,,
{8}7h[8:4],,6,,5h[8:4],,6,,4h[8:4],,,,{32}A3,D3,A2,D2,A1,D1,A8,D8,A7,D7,A6,D6,A5,D5,A4,D4,
{8}7h[8:2],,5<8[8:1],,4-1[8:1],,6,6,
{8}7-3[8:1],,4,,2,3,4,5,
{8}7h[8:2],,5-1[8:1],,3,,28,2qq5[8:3]/8,
{8},6,6h[8:2],,,47,63,52,
{24}1,,1,4,,4,{8}3h[8:2],5,6h[8:2],4,5>2[8:1],7,
{8}5<8[8:1],6,5-2[8:1],3,1,8-4[8:1],7,68,
{8}5h[8:4],,E1,,6,4>6[8:4],3,24,,B4,E3,,
{8}
{24}1x,8x,1x,8x,1x,8x,1x,8x,1x,8x,1x,,
{16}7hx[16:2]/2hx[16:2],,,6hx[16:2]/5hx[16:2],,,4hx[16:2]/3hx[16:2],,
{16},,5,,6,,7,,8hx[16:2]/3hx[16:2],,,7hx[16:2]/5hx[16:2],,,4hx[16:2]/2hx[16:2],,
{8},3,1,6,6-2[8:1],,6/3-7[8:1],,3/5-8[8:1]*-2[8:1],,5,,17,56,28,3z7[8:2]/4s8[8:2],25,,,,
{8}2b-4[8:1]b,3,2/5-1[8:1],6,2-5[8:1]b/5,3,2/5-1[8:1],6,
{8}5/2-6[8:1]b,3,5>1[8:1]*V31[8:1]b,7,5,,8V64[8:1],7h[8:2],
{8},,1V35[8:1],2h[8:2],,,4<3[8:3],5h[8:4],,,,,,27,18,,
{8}8-6[8:1],7,5-1[8:1]/8,4-8[8:1],5,4,7,7-4[8:1],
{8},57,3,1qq4[8:3],,51,6,7,
{8}8w4[8:1],,8,,26,26,17,1/7h[8:5],,E1,E7,E5,B3/E3/B2,B6/E7/B7,C,,
{8},,,,,,,,
{8}Ch[8:4]/E8/E2/E4/E6,,,,{24},,,7,,7,5,,5,8,,8,
{16}4hx[8:2],,1,,{24}7,,5,7,,5,{16}8hx[8:2],,1,,{24}2,,4,2,,4,{16}1hx[8:1],,6,5,7hx[8:1],,3,4,2h[8:1]x,,
{16}8,1,7hx[8:1],,E1,,6hx[8:1],,5,,4hx[8:1],,5,5,{12}3x,2,1,6x,7,8,
{24}2x,,3,,4,,6x,,6,8,,8,{24}5x,,5,4,,4,5x-1[8:1],,5,3x,,,
{24}A5f,,,,,,2hx[8:2],,,8,,,
{24}7hx[8:2],,,6,,5,5hx[8:2],,,8,,,7x,,7,5,,,2x,,2,4,,,
{24}6x,5x,,3x,4x,,7hx[8:2],,1x,1x,,,
{24}4x,,,E1/B8/E3/B3,,,5x,,,E1/B1/E7/B6,,,
{24}8x,,2x,7x,,1x,8x-4[8:1],,2x,7x,,1x,{16},,,,,,,,
{16}3bx<6[8:1],,6>3[8:1]b,,,,,,,,
{8}7,18,1h[8:2],3,3h[8:2],2,2h[8:2],4-7[8:1],4,3-8[8:1],3,6,E7,C,E3,36,
{8}2,81,8h[8:2],6,6h[8:2],7,7h[8:2],5>2[8:1],5,6v1[8:1],6,3,{32}E3,B3,B4,,B8,B7,E7,,C,,,,
{8}8<5[8:1],6,4-7[8:1],2,8>6[8:2],1,2,,
{8}8>6[8:2]b,5h[8:2],8b,,8>6[8:2]b,4h[8:2],8b,,
{8}8>6[8:2],5,6q7[8:2],7,8h[8:2],,,2,
{8}1/2-7[8:1],,4-1[8:1]/2,,6-3[8:1]/4,,8w4[8:1]/6,,
{8}8>8[8:12],,,,,,C,,,,C,,,,C,,
{8}3h[8:2],,E4,,6h[8:2],,E6,,4<7[8:2],,7>2[8:2],,2>5[8:2],,5,,
{8}7-4[8:1],,75,,8V64[8:1],,85,3,2-5[8:1],,24,,1V35[8:1],,14,
{8}6,8-6[8:1]*v5[8:1],,8-2[8:1]*v3[8:1],,8,,47,4/7h[8:4],,6,4,2,
{8}1hx[16:1]/8hx[16:1],1hx[16:1]/8hx[16:1],2bx/7bx,,
{32}7,B7,5,,,,5,,7,B7,,,1,,,,{16}3,4,3,4,1,8,1,8,{16}2V46-8[8:2]b,,5,,{32}7b,E7,B6,,,,,,{16}1hx[16:1],,1hx[16:1],,{32}2x/8x,B2/B8,,,,,,,
{32}B6/B7,B8,B1,B2,B3,B4,B5,B6,E7,E8,E1,E2,E3,E4,E5,E6,
{16}2,,2x,,6,,6x,,{24}1,,1,3,,3,5,,5,7,,7,{32}1bxw5[8:1],B1,C,B5,,,,,1,,,,,,,,
{16}E7/B6/E6,,E3/B3/E4,,1hx[16:1]/7hx[16:1],,1hx[16:1]/7hx[16:1],,
{24}6,,6,4,,4,5,,5,3,,3,{32}A7/E7,D7,A6/E6,D6,A5/E5,D5,A4/E4,D4,
{8}A3/D3/1bx,,{32}A2/E3,D3,A3/E4,D4,A4/E5,D5,A5/E6,D6,
{8}A6/D7/8bx,,
{24}7,,5,6,,4,5,,3,4h[8:1],,,3>7[8:1]b,,3,5,,,Ch[8:1],,,,,,
{16}1hx[8:1]/5hx[8:1],,,,2hx[8:1]/6hx[8:1],,,,
{24}6x,5,4,2x,1,8,6x,5,4,2x,,,
{24}6hx[24:5],,E6,,,4,4hx[24:5],,E5,,,8,8hx[24:5],,E1,,,2,7,,7,5,,5,
{24}6h[8:2],,E7,E6,E5,E4,E3,,E7,E6,E5,E4,E3,,,1-5[8:1],,1,5,,5,1,,,
{24}6hx[24:5],,,,,5,5hx[24:5],,,,,7,4,,4,8,,8,3<6[8:1],,,5,,,
{24}3/7>2[8:1],,D5,,,,73,,D1,,,,4,,4,6,,6,5,,5,7,,3,
{24}3hx[24:5],,E4,,,5,5hx[24:5],,E5,,,1,1hx[24:5],,E1,,,7,2,,2,4,,4,
{24}3h[8:2],,E3,E2,E1,E8,E7,,E3,E2,E1,E8,E7,,,5,,5,4,,4,8,,8,
{24}2x,3,4,6x,7,8,2x,3,4,6x,7,8,3x,2,1,7x,6,5,2x,,2,4,,4,
{24}1,,4,3,,3,8,,5,6,,6,Ch[8:1]f,,,,,,,,,,,,
{16}2-4[8:1]/5-1[8:1],,,,25,,,,2-5[8:1]/5-1[8:1],,,,25,,,,2-6[8:1]/5-1[8:1],,,,2/5>1[8:1],,,,,,,,7,,6,,
{16}5<7[8:1],,,,5,,3,,4>2[8:1],,,,4,,6,,
{16}5hx[8:1]/1hx[8:1],,,,5hx[8:1]/1hx[8:1],,,,26,,78,,12,,35,,
{24}7,,7,1,,B7,2,,2,8,,B2,{16}5-1[8:1],,4-8[8:1],4,5,,4,,
{16}7-5[8:1],,4<3[8:2]b,,7,,4b,,,,7,,8V64[8:2],,5,,4V28[8:2]/8,,,,1,,,,2-6[8:1],,7-3[8:1],,2,,7,,,,E1,,E3,,E5,,E7,,,,1h[8:1]/8h[8:1],,,,
{24}2,,2,4,,4,1,,,17,,,7,,7,5,,5,8,,,28,,,
{24}2,,2,4,,4,1,,,78,,,56,,,34,,,12,,,34,,,
{16}5-1[8:1],,6,,4-2[8:1]/5,,3,,8-4[8:1]/4,,7-3[8:1],,8,,7,,5-1[8:1],,,6,6-2[8:1],,,4,4<7[8:1]*>1[8:1],,3,,4b,,,,
{24}8-4[8:1],,,75,,,48,,,3,,,2,,2,4,,4,1,,,75,,,4-8[8:1],,,8,,,47,,,6,,,5<1[8:1],,,1,,,5,,,,,,
{16}48,,3h[8:1],,4,,26,,15,,15,,48,,4-6v1[8:2]/8-2v5[8:2],,,,,,,,,,4-6-3[8:2]/8-2-7[8:2],,48,,,,,,
E
