&title=Cutie Mew Mew Magic
&artist=Toby Fox feat.Camellia
&first=0.051
&des=Q1NyaM0
&lv_5=14
&des_5=Q1NyaM0
&inote_5=
(180){4}7x-4[8:1],{8}7,1-5[8:1],,1,8,7,
{4}6-2[8:1],{8}6,3-8[8:1],,3,7,6,
{4}5xq1[8:1],{8}5,2>4[8:1],,2,8,7,
6/5,{16}2,4,{8}3,{16}7,5,{8}6,{16}1,8,2,7,3,6,
{4}4x-8[8:1],{8}4,7-5[8:1],,7,4,3,
{4}2-6[16:3],{8}2,7-4[8:1],,7,2,1,
{4}8x-3[16:3],{8}8,7<5[8:1],,7,1,2,
3/4,{16}7,5,{8}6,{16}2,4,{8}3,{16}7,8,6,1,5,2,
{4}3b/4b,{8}2x,{16}4,3,{8}4,2,4x,3h[8:3],
,,7x,{16}5,6,{8}5,7,{16}5x,4,{8}3,
{4}1/2,{8}3x,{16}1,2,{8}1,3,1x,2h[4:1],
,8,7x,6>3[8:1],{16},,2,1,8x,7,6,5,
{4}4/7,{8}5x,{16}6,5,{8}6,7,8x,1h[8:3],
,,2x,3v8[8:1],{16},,4,5,{8}6x,7,
{4}8/7,{8}6x,{16}8,7,{8}8,6,8x,7h[8:3],
,6,5x,4,{16}3x,4,3,4,2x,5,2,5,
{8}6x/1b-5[8:1],,,7xv4[8:1],4V68[16:3],7,2x-5[8:1],3,
2x,,,2xv5[8:1],5V31[16:3],2,7x-4[8:1],6,
7x,,,7xv4[8:1],4q8[8:1],7,3x,2,
1x,{16}5/2,3/6,{8}4x/7,1-5[8:1]/8-4[8:1],2x/7x,1x/8x,,,3/6x-1[8:1],
,,2,3/6x-8[8:1],3,4,4,
6/3x-8[8:1],,,7,6/3x-1[8:1],6,5,5,
3/6x-1[8:1],,,2,3x,3,{24}4,5,4,5,,,{4}6/2b-5[8:1],
2/8b-4[8:1],8/1b-5[8:1],1/7bw3[8:1],
7b,{16}B2,B1,B8,B7,B6,B5,B4,B3,A2,A1,A8,A7,
6x,5,4,3,2,1,8,7,6/3x,2,1,8,7,6,5,4,
B7,B8,B1,B2,B3,B4,B5,B6,A7,A8,A1,A2,A3,A4,A5,A6,
7x,8,1,2,3,4,5,6,7/3x,4,5,6,7,8,1,2,
B4,B5,B6,B7,B8,B1,B2,B3,A4,A5,A6,A7,A8,A1,A2,A3,
4x,5,6,7,8,1,2,3,{4}8bxv6[8:1]/4bxv2[8:1],4bx/8bx,
{8}5/1x,1/5,2/6x,2/6,3x/7,3/7,4/8x,4/8,
5b/1b,{16}4,8,3,7,2,6,{4}1bw5[8:1],1b,
3b-8[8:1]/7b-4[8:1],7x/3b>5[16:3],3,{8}2x-4[8:1],1-5[8:1],
2-6[8:1],1-7[8:1],2x,1,,,7/5x-8[8:1],6/4,
5/3,{16}2,1,{8}2x,{16}7,8/7,,,{8}6/4x-7[8:1],5x/3,4/2x,
1>3[8:1],8-4[8:1],1xw5[8:1],8,1,,,6/4,
7v4[8:1],8,7,{16}1w5[8:1],1,,,{8}1x,,3x/7x,
2v5[8:1],{16}1,1,{8}2,{16}8w4[8:1],8,,,{8}8x,,7x/1x,
{32}2x,3,4,5,6,7,8,1,{4}2bx/6bx,{32}7x,6,5,4,3,2,1,8,{4}7bx/3bx,
{32}1x,2,3,4,5,6,7,8,{4}1bx/5bx,{32}8x,7,6,5,4,3,2,1,{8}8bx/4bx,7bx/3bx,
{4}6bv1[8:1]/2bv5[8:1],2x/6b<4[16:3],6,{8}7x-5[8:1],8-4[8:1],
7-3[8:1],8-2[8:1],7x,8,,,2/4x-1[8:1],3/5,
4/6,{16}7,8,{8}7x,{16}2,1/2,,,{8}3/5x-2[8:1],4x/6,5x/7,
8<6[8:1],1-5[8:1],8xw4[8:1],1,8,,,3x/5x,
2v5[8:1],1,2,{16}8w4[8:1],8,,,{8}8x,,6x/2x,
7v4[8:1],{16}8,8,{8}7,{16}1w5[8:1],1,,,{8}1x,,2x,
2-4[8:1],5,2x-8[8:1],6,2-4[8:1],7,2x,7,
7<5[8:1],4,7x>1[8:1],3,7<5[8:1],2,7x,2,
2-5[8:1],3,8x-4[8:1],7,1-5[8:1],2,7x-4[8:1],6,
3-8[8:1],2,5x-1[8:1],6,4-8[8:1],3,6x,7,
1/7x-4[8:1],7,7/1x-5[8:1],1,1/8x-4[8:1],8,8/2x-5b[8:1],2,
2/7x-3b[8:1],7,7/1x-5b[8:1],1,1/8x-4b[8:1],8,8/2bx,2bx,
{4}5b/2b,5b/6b,{8}7b/2b,{24}3,4,5,{8}6,1x/8x,
{16}2x,4,3,4,1x,5,4,5,8x,6,5,6,7x,5,4,5,
{8}Cf,,,B7/E7,B2/E3,{24}B3,B4,B5,{8}B6,E8/B8/B7,
E4h[8:5]/B3h[8:3]/B4h[2:1],,,B1/B2,B8/B7,B6/B5,,,C,
,,B2/E3,B7/E7,{24}B6,B5,B4,{8}B3,{16}B2,E7,
E6,E4,{8}E5,C,{16}B7,E6,,B2,{8}E4,{16}A8,B8,C,B4,
{8}4xh[8:5],,,,,3,,,5/6xh[8:5],
{16},,,,,,,,5,6,5,6,5,6,
{4}4x/7,{8}8x/3,{16}2,1,{8}2,3/8,1x,2,
,7/5,4x/6,5/3,{16}2,4,3,5,4x,6,5,7,
{4}1x/8x,{8}4/7x,{16}6,5,{8}6,7/4,5x,6,
,,1/2x,3/8,{16},,5,6,{8}5x,7/4,
{4}8/3,{8}2x/1,{16}3,4,{8}3,2/5,1/6x,8/7,
,2/4,3/5x,4/6,{16}7,5,6,4,5,3,4,2,
{8}1bxh[8:3],,,8,7xh[4:1],1,3h[4:1],7,
6xh[2:1],,,2,3xh[4:1],6,{16}5,4,5,4,
{8}6bx/3bx,,,2-5[8:1],5xV31[8:1],2,6,7,
8x,{16}7/4,6/3,{8}5x/2,1q5[8:1]/8p4[8:1],7x/2x,8x/1x,,,6bx/3bx,
,,2-6[8:1],6xV42[8:1],2,8-4[8:1],7,
8x,,,7-3[8:1],3xV57[8:1],7,1-5[8:1],2,
1x,,,8x/7x,7x/6,6x/5x,{24}4x,5,3,4,{96},,,,,,,,{32}2x,
3,4,5,{8}6,{32}7x,6,5,4,{8}3,{32}1x,2,3,4,{8}5,{32}8x,7,6,5,{8}4,
{16}2b,1,3,8,4,7,5,6,8x,7,1,6,2,5,3,4,
2x,1,8,7,1x,8,7,6,8x,7,6,5,7x,6,5,4,
1b,5,2,6,3,7,4,8,5x,1,4,8,3,7,2,6,
1x,2,3,4,2x,3,4,5,3x,4,5,6,4x,5,6,7,
2b,1,3,8,4,7,5,6,8x,7,1,6,2,5,3,4,
1x,2,3,4,5x/1x,6,7,8,{4}1bx-5[8:1]/5bx-1[8:1],1/5,
{8}8/4bx,8/4,7bx/3,7/3,1b/2,4/6b,8/7b,5/3b,
{2}1b/Cf,{4}B8/B7/E8,C,
3>6[8:25],,,B6,
C,B3,B2,C,
{2}4-1[8:1],2-5[8:1],
{4}3-8[8:1],{8},,,,4,5,
{4}6<3[8:25],,,B3,
C,B6,B7,C,
{2}5-8[8:1],7-4[8:1],
{4}6-1[8:1],{8},,,,E8/B8/B7,B3/E4/B4,
{4}C,C,C,6/C,
3/C,2/C,1/C,8/C,
{16}7/C,6,{8}5,{4}C,{16}2/C,3,{8}4,{4}C,
7h[4:1],5h[4:1],3h[4:1],1h[4:1],
{8}7b,6,5,4h[8:3],,,3,4,
{4}1/2,8/3,8/7,1/6,
{8}2b,3,4,5h[8:3],,,6,5,
{4}8/7,6/1,2/1,8/3,
{8}6/4x,7,5x/3,2,6/4x,8,5x/3,1,
6x/4,2x/8,3/5x,7/1x,6x/4b,8b/1x,3b/5x,8b/1x,
{32}2b,3,4,5,6,7,8,1,2,3,4,5,6,7,8,1,2,3,4,5,6,7,8,1,2,3,4,5,6,7,8,1,
{8}2b/E7,B6,{16}B7,C,B3,E3,{8}B2,C,{4}B7,
{8}8b/7b,{16}1,6,2,5,3,4,{4}2b-6b[8:1],2b/6b,
{8}1/7b<5[8:1],{16}2,3,{8}7bx>1[8:1],{16}2,3,{8}7bx-3[8:1],{16}2,3,{8}7x,2,
1-5[8:1],7-3[8:1],1x,7,,,2/4x-1[8:1],3/5,
4/6,{16}7,8,{8}7x,{16}2,1/2,,,{8}3/5x-2[8:1],4x/6,5/7x,
8<6[8:1],1-5[8:1],8xw4[8:1],1,8,,,6x/2x,
{16}3,4,3,5,4,5,3-8[8:1],4,,,{8}3x/4x,,7x/1x,
{16}6,5,7,2,4,3,6-1[8:1],5,,,{8}6x/5x,,8x/3x,
{16}2,1,2,1,{32}2b,3,4,5,{8}6,{16}7,8,7,8,{32}7b,6,5,4,{8}3,
{16}2,1,3,1,{32}2b,3,4,5,{8}6,{16}7,8,6,8,{8}7b,6b/4,
8/2bx>4[8:1],{16}7,6,{8}2bx<8[8:1],{16}7,6,{8}2bx-6[8:1],{16}7,6,{8}2x,7,
8-4[8:1],2-6[8:1],8x,2,,,7/5x-8[8:1],6/4,
5/3,{16}2,1,{8}2x,{16}7,8/7,,,{8}6/4x-7[8:1],5x/3,4/2x,
1>3[8:1],8-4[8:1],1xw5[8:1],8,1,,,3x/7x,
{16}6,5,6,4,5,4,6-1[8:1],5,,,{8}6x/5x,,2x/8x,
{16}3,4,2,7,5,6,3-8[8:1],4,,,{8}3x/4x,,1x,
2-4[8:1],5,2x-8[8:1],6,2-4[8:1],7,2x,7,
7<5[8:1],4,7x>1[8:1],3,7<5[8:1],2,7x,2,
2-5[8:1],3,8x-4[8:1],7,1-5[8:1],2,7x-4[8:1],6,
3-8[8:1],2,5x-1[8:1],6,4-8[8:1],3,6x,7,
1/7x-4[8:1],7,7/1x-5[8:1],1,1/8x-4[8:1],8,8/2x,2,
2bx/7,3/4bx,5bx/6,7/8bx,{16}2bx,1,2,1,{32}2b,3,4,5,6,7,8,1,
{4}6b/2b,8b/4b,{8}7b/2b,{24}6,5,4,{8}3,8b/1b,
{16}7bx,5,6,5,8bx,4,5,4,1bx,3,4,3,2bx,4,5,4,
{6}Cf,{12}B7,B6,,B2,{4}B3,C,
{12}7b/4,6,5,3b/8,2,1,{8}7b/4,5,6,7/4,
3/8,{24}2,1,2,{8}1,3/8,7/4,6,5,7/4,
8/1,{16}3,4,3,4,3,4,{8}2/5,4,3,2/5,
6/1,{24}7,8,7,{8}8,6/1,2/5,{24}3,4,3,{8}4,5/2,
8/1,{16}6,5,6,5,6,5,{8}7b/4,5,6,7/4,
3/8,{24}2,1,2,{8}1,3/8,7/4,6,5,7/4,
8/1,{16}3,4,3,4,3,4,{8}2/5,4,3,2/5,
6/1,{24}7,8,7,{8}8,6/1,2/5,{24}3,4,3,{8}4,5/2,
8/1,{16}6,5,6,5,6,5,{4}7/4,{8}7,7-4[8:1],
,1,{4}1-5[8:1],8,{8}8,8-4[8:1],
,1,2,3,{4}4-8[8:1],{8}7,7-5[8:1],
,1,{4}1-3[8:1],{8}1,8,{16}1,8,,1,
8,1,8,1,7-3[8:1],2-6[8:1],7,2,
E
