&title=明鏡烈火
&artist=Reku Mochizuki; M-UE
&first=0.31
&des=街机烈火
&lv_5=14.5
&inote_5=(200)
{1},
{4}6b^1[4:2],5,4,3,2h[2:1],
{8},3,4,5,6,7,7-4[4:1],,,3,2,,1^4[4:1],,4^7[4:1],,7^2[4:1],,2^5[4:1],,5,,
{4}7-4[4:2],8,1,2,3h[2:1],
{8},2,1,8,7,6,6-1[4:1],,,2,3,3,7,7,14,1,25,2,3b/6b,6,4b/7b,7,
{8}8hb[4:3]/5b,,4,,3,,2,2,1hb[4:3]/4b,,3,,4b,,5b,,7hb[4:3]/8b,,5,,4,,3,3,2hb[4:3]/1b,,3,,4b,4,5b,5,
{8}68,7,13,2,75,6,
{16}24,,3,4,2b,,6,,
{8}58,7,14,2,47,
{16}6,5,
{16}1bx,8,1,8,2,7,2,7,3,6,3,6,4,5,4,5,4b-1-6p2b[2:1],,,,,,,,,,,,,,,,
{4}7h[8:1]/2-5[8:1],7h[8:1],6h[8:1]/4-8[8:1],6h[8:1],7h[8:1]/1-5[8:1],7h[8:1],
{8}74,6,53,2,
{4}7-4[8:1]/1h[8:1],1h[8:1],3h[8:1]/5-1[8:1],3h[8:1],2h[8:1]/8-4[8:1],2h[8:1],
{8}25,3,46,7,,1b/5b,3b/7b,,
{4}8h[8:1]/2-4[8:1],8h[8:1],7h[8:1]/1-5[8:1],7h[8:1],
{8}26,3,47,8,
{4}4h[8:1]/6b-8[8:1],4h[8:1],3h[8:1]/5-1[8:1],3h[8:1],
{8}2b/4b,2/4,57,57,
{16}1,2,3,4,15,8,7,6,
{16}3x,4,2,4,3,,3,,6x,5,7,5,6,,7,,
{16}18,,2,,35,,6,4,7x,8,7,8,7,,6,,6,,45,,3,,3,,2x,1,2,1,2,,3,,
{16}3h[8:1]/5h[8:1],,,1h[8:1]/2h[8:1],,,4h[8:1]/6h[8:1],,,8h[8:1]/7h[8:1],,,15,26,37,48,
{8}1x,1,12,2,23,3,34,4,45,5,56,6,67,7,78,8,
{16}1x,4,1,4,2,5,2,5,3,6,3,6,4,7,4,7,5-2-7-4b[8:5],,,,6x-3-8[8:3],,,,,,,,,,,,
{8}1hb[4:1]/2hb[4:1],,,5qq2[8:8]/6,,,,,1x^6b[8:3],,,,,,,,
{8}5hb[4:1]/6hb[4:1],,,1p6[8:8]/2,,,,,5x^2b[8:3],,,,,,,,
{8}8hb[4:1]/7hb[4:1],,,5/3^8-4[8:8],,,,,5x-7b[8:3],,,,,,,,
{8}4hb[4:1]/3hb[4:1],,,1/7^4[8:1],,,,,
{4}1-5[8:1]/8,1/7-3[8:1],7/4-8[8:1],46,
{12}1h[6:1]/2hb[6:1],,,1h[6:1]/8h[6:1],,,7,4,6,5,,7,8h[6:1]/7h[6:1],,,1h[6:1]/8h[6:1],,,3,4,2,5,,3,3hb[6:1]/4h[6:1],,,4h[6:1]/5h[6:1],,,6,1,7,2,8,3,7,5,6,2,4,3,8bx,6b,7b,1bx,3b,2b,
{12}7hb[6:1]/8hb[6:1],,,3,5,4,
{12}7,5,6,3b,,2,1hb[6:1]/2hb[6:1],,,6,4,5,
{12}3b,4,2,7b,5,6b,2b,4,3,8b,5,7,1b,4,2,8b,5,7,1b,5,3,1b,5,7,1b,5,3,1b,5,7,Cf,,,,,,,,,,,,
{1},
{16}3h[1:1],,,,,,,,,,,,,,,,
{1}4h[1:1],5h[8:7],
{2}6h[8:3]/7h[8:3],7/8>4[4:1],
{1}6h[1:1],5h[1:1],4h[8:7],
{2}2h[8:3]/3h[8:3],1-6[6:1]*-4[6:1]/2,
{8}7-4[2:1],,3,,2,,1,,1-5-2[2:1],
{16},,
{8},,6,,7,,3^6[2:1],,6,,7,,8,,
{16}8-5[4:1],,,,,,,,4-1[4:1],,,,
{8}7,,6^1[2:1],,2,,3,,4,,
{16}4V26[2:1],,,,,,,,6-1[6:1],,,,,,,,
{16}7^4[4:1],,,,,,,,3-8[4:1],,,,,,,,5w1b[8:1],,,,,,,,
{8}74,6,35,2,
{16}1b-5b[8:1],,8,,1/7^4[8:1],,6,,3x-8[8:1],2,1,,5x-1[8:1],,6,,
{16}5/7>6b[8:3],,,,3b,,3hb[4:1],,,,,,17,,3,5,
{16}2-5b[8:1],,,1,2,,7,,6-1[8:1],,5,,6/4^1[8:1],,5,,
{16}7-4b[8:1]/4,,,8,7,,8,,1-5[8:1],,2,,13,,,,
{16}2bv5V38b[4:1],,,8,2,,7,,6-1[8:1],,2,3,4x/6x,,5,,
{16}7b-4V61b[4:1],,,4,7,,1,,2-5[8:1],,3,,8/2,,8x,7,
{16}6b-1b[8:1],,,4,6,,3,,2b-5[8:1],,,7,2,,1,,
{16}8b-4b[8:1]/4,,,2,8,,1,,2b/6b,,2b/6b,,3b/7b,,3b/7b,,
{16}8b-4b[8:1],,1,,8/2^5[8:1],,3,,6x-1[8:1],7,8,,3,,4,,
{16}7^4b[8:1],,,1,7,,1,,2^5[8:1],,,,2-6b[8:1]/7-1b[8:1],,6,,
{16}2/7,,,,5-8[8:1],,4,,3-7[8:1]/5,,2,,1/3,,8,,
{16}6^1b[8:1],,,5,6,,5,,4^1[8:1],,,,1,8,7,6,
{16}5b-8V64b[4:1],,,4,5,,3,,2-5[8:1],,6,7,8x/2x,,1,,
{16}6bx-1V74b[4:1],,,1,6,,4,,3-8[8:1],,2,,5/3,,6,,
{16}6bx,5,4,3,2,1,8,7,6h[8:1],,4h[8:1],,2h[8:1],,8h[8:1],,
{8}6b,4bs8[6:1],,2b-6b[8:1],,2,
{16}7x,7,3x,3,
{16}5-3b[8:1],,4,,3-7b[8:1],,2hb[4:1],,,,,,28,,7,,
{16}1-5b[8:1]/6,,2,,1/3,,3,4x,,,6,,5-2[8:1],,6,,
{16}5/7b^4b[8:1],,,8,7,,1,,2bx^7[8:1],3,,3,2,,4,,
{16}5b-1b[8:1],,,6,5,,7,,7,8,,,56,,34,,
{16}1-7b[8:1],,8,,7-3b[8:1],,6hb[4:1],,,,,,64,,3,,
{16}5-1b[8:1]/2,,6,,5/7,,7,8x,,,2,,1-6[8:1],,2,,
{16}1/3b^8b[8:1],,,4,3,,5,,6bx^3[8:1],7,,7,6,,8,,
{16}2hbx[8:1]/1hbx[8:1],,,6hb[8:1]/5hb[8:1],,,8hb[8:1]/7hb[8:1],,,4hb[8:1]/3hb[8:1],,,
{32}1x/2x,38,47,56,,,,,
{16}8bx-3b[8:1],,7,,6-1[8:1],,5,,4,,3,,25,,6,,
{16}4-8b[8:1]/7,,3,,4/2,,2,1x,,,7,,8-3[8:1],,7,,
{16}8/6bx^1b[8:1],,,5,6,,4,,3b^6[8:1],2,,2,3,,1,,
{16}8b-4b[8:1],,,7,8,,6,,6,5,,,34,,21,,
{16}7b/5b,,7,,37,,7,,71,,7,,75,,4,6,
{16}2b,,2,,24,,2,,2,5,3,,46,,7,5,
{8}8b,8,86,8,
{16}2bx,1x,3x,8x,5,6,4,7,
{16}1h[8:1]/2h[8:1],,,4h[8:1]/6h[8:1],,,7h[8:1]/8h[8:1],,,3h[8:1]/5h[8:1],,,18,,36,,
{24}5hb[4:1]/4,3,2,1,8,,,,,8h[4:1]/7,6,5,4,3,,,,,6h[4:1]/5,4,3,2,1,,,,,8h[4:1]/1,2,3,4,5,,,,,{32}7bx,6,5,4,3,2,1,8,7/3,4,5,6,7,8,1,2,
{24}3hb[4:1]/4,5,6,7,8,,,,,1h[4:1]/8,7,6,5,4,,,,,3h[4:1]/4,5,6,7,8,,,,,8h[4:1]/1,2,3,4,5,,,,,{32}7bx,6,5,4,3,2,1,8,7/3,4,5,6,7,8,1,2,7bq3q5[4:7]/3bq7q1b[4:7],
