&title=jellyous
&artist=ILLIT
&first=0.02
&des=DAAT巴西安反黑站
&lv_5=14
&inote_5=(162)
{4},,,,,,,,,,,,,,,,,,,
{4}3h[8:2],6h[8:2],4qq1<6[8:6],5h[8:2],,6-2[16:3],,,
{4}6h[8:2],3h[8:2],5pp8>3[8:6],4h[8:2],,3-7[16:3],,,
{4}3h[8:2],6h[8:2],4p1-6[8:6],5h[8:2],,6-3[16:3],,
{8}8h[8:1],1,1h[8:1],7,7h[8:1],2,2h[8:1],6,6h[8:1],3,3h[8:1],,
{8}1b/2b,1b/2b,8b/7b,8b/7b,
{16}1/2-5[8:1],,,1,2,,1,,2-5[8:1]/8,,,8,2,,8,,7-2[8:1],,2V48[8:2],,4h[8:2],,,,,,,,,,,,
{16}8/7-4[8:1],,,8,7,,8,,7-4[8:1]/1,,,1,7,,1,,2<7[8:1],,7V51[8:2],,5h[8:2],,,,,,7,,6-1[8:1],,,,
{16}6/5,,,4,6-1[8:1],,3,,6/4,,,3,6-1[8:1],,2,,3/6,,,2,6-1[8:1],,2,,6,,,7,3-8[8:1],,7,,3,,,5,3-8[8:1],,6,,5/3,,,6,3-8[8:1],,7,,3/6,,,7,3-8[8:1],,7,,3/6h[8:2],,,,
{32}1,2,3,4,5,6,7,8,
{16}1-5[8:1],,,5,1,,6,,8-4[8:1],,,4,8,,3,,2-6[8:1],,,6,2,,8,,7-3[8:1],,,3,7,,8,,
{16}1-5[8:1],,,{32}7,6,{16}5/1,,6,,8-4[8:1],,,{32}2,3,{16}4/8,,3,,2-6[8:1],,,{32}8,7,{16}6/2,,8,,7-3[8:1],,,{32}1,2,{16}3/7,,8,,1-5[8:1],,,8,1,,8,,2-6[8:1],,,8,2,,8,,3-7[8:1],,,8,3,,8,,4-8[8:1],,,,7z3[8:6],,,,{32}A1,B1,C,B5,{8}A5,,,,,,,
{4}2b/Cf,6b/Cf,4b/Cf,8b/Cf,
{16}2>5[8:1],,,1,2,,8,,1/2-5[8:1],,6-1[8:1]/5,,2,,6,,{32}2,3,4,,{16}8,8,2-4[8:1],,6-8[8:1],,2-6[8:1],,6,,2,,,,
{16}7<4[8:1],,,8,7,,1,,8/7-4[8:1],,3-8[8:1]/4,,7,,3,,{32}7,6,5,,{16}1,1,7-5[8:1],,3-1[8:1],,7-3[8:1],,3,,7,,,,
{16}1-5[8:1],,,8,1,,7,,6v1[8:1],,2v5[8:1],,6,,2,,{32}8,7,6,,{16}3,3,{32}7,6,5,,{16}2-7[8:1],,6-3[8:1],,2,,6,,,,
{16}8h[8:1]/1>4[8:1],,,8,1,,7,,7h[8:1]/1>4[8:1],,,7,1,,6,,6h[8:1]/1>4[8:1],,,6,1,,5,,5h[8:1]/1>4[8:1],,,5,1,,8,,
{16}7<4[8:1],,,8,7,,1,,2-5[8:1]/3,,6-1[8:1]/7,,2,,6,,{32}2,3,4,,{16}8,8,
{16}2-8[8:1],,6-4[8:1],,2-6[8:1],,6,,2,,,,
{16}2>5[8:1],,,1,2,,8,,7-4[8:1]/6,,3-8[8:1]/2,,7,,3,,{32}7,6,5,,{16}1,1,
{16}7-1[8:1],,3-5[8:1],,7-3[8:1],,3,,7,,,,
{16}8-4[8:1],,,1,8,,2,,3v8[8:1],,7v4[8:1],,3,,7,,{32}1,2,3,,{16}6,6,{32}2,3,4,,{16}7-2[8:1],,3-6[8:1],,7,,3,,,,8z4[8:5],,,,,,,,,,,,,,,,
{4}2b/Cf,6b/Cf,4b/Cf,8b/Cf,
{16}2/8,,,8,{32}2,3,4,,{16}8,,{16}2/7,,,7,{32}2,3,4,,{16}7,,{16}2/6,,,6,{32}2,3,4,,{16}6,,5-8[8:1],,2h[8:1],,5,,,,
{16}7/1,,,1,{32}7,6,5,,{16}1,,{16}7/2,,,2,{32}7,6,5,,{16}2,,{16}7/3,,,3,{32}7,6,5,,{16}3,,4-1[8:1],,7h[8:1],,4,,,,
{16}2/8,,,8,{32}2,3,4,,{16}8,,{16}7/2,,,2,{32}7,6,5,,{16}2,,{16}2/6,,,6,{32}2,3,4,,{16}6,,4/5,,3/6,,4h[8:1]/5h[8:1],,,,2-5[8:1]/6,,3,,6-1[8:1]/2,,7,,6/4-1[8:1],,4-7[8:1],,,,,,{8}3-7[8:1],2,7-3[8:1]/3,6,A7,,{32}2,1,8,7,6,5,4,3,{8}2z6[8:12],,
{4},,,,,,,{16}2-4[8:1],,,5,2,,6,,7-5[8:1],,,4,7,,2,,1-3[8:1],,,6,1,,7,,8-6[8:1],,,3,8,,2,,
{16}1-3[8:1]/5,,,5,,,5,,{32}5/B3,B4,{16},,5,,,5,,5/4-1[8:1],,,5,,,5,,5h[8:2]/2-7[8:1],,,,2,,,,
6/1-5[8:1],,,6,,,6,,{32}6/B3,B4,{16},,6,,,6,,6/2-4[8:1],,,6,,,6,,6h[8:2],,E4,,B3,,B2,,
{8}1>4[8:4],,,,B7/B6,,8<5[8:4],8,,,1,,B2/B3,,,,
{8}8<5[8:4],,,,B2/B3,,1>4[8:4],1,,,8,,B7/B6,,,,
{8}4-6-2-8[8:8]/5-3-7-1[8:8],,,,,,,,,,,,
{32}2,3,4,5,6,7,8,1,2,3,4,5,6,7,8,1,2z6[8:4],,,,,,,,,,,,,,,,,,,,,,,,,,,,,,,,
{4}2b/Cf,6b/Cf,4b/Cf,8b/Cf,C,
{32}1h[8:1]/8,7,6,,,,,,7h[8:1]/2,3,4,,,,,,3h[8:1]/6,5,4,,,,,,
{16}2/5,,3,4,2-6>4-8[8:3],,2,,{32}2/6,5,4,,{8},7h[8:2],,C,,
{32}8h[8:1]/1,2,3,,,,,,2h[8:1]/7,6,5,,,,,,6h[8:1]/3,4,5,,,,,,
{16}7/4,,6,5,7-3<5-1[8:3],,7,,{32}7/3,4,5,,{8},2h[8:2],,C,,
{32}1h[8:1]/8,7,6,,,,,,7h[8:1]/2,3,4,,,,,,3h[8:1]/6,5,4,,,,,,
{16}2/7,,4,5,3/6,,1/8,,{32}3,4,5,6,7,8,1,2,
{16}3/7-5[8:1],,,,7,,,3,7-4[8:1],,3,,7/3,,,3,7-2[8:1],,3,,3/7,,,3,7-1[8:1],,3,,7/3,,,3,7,,3,,C,,,,
{32}1h[8:1]/8,7,6,,,,,,7h[8:1]/2,3,4,,,,,,3h[8:1]/6,5,4,,,,,,
{16}2/5-3[8:1],,3,4,2/5,,1,,{32}8,1,2,,4,5,6,,{8}1h[8:2],,C,,
{32}8h[8:1]/1,2,3,,,,,,2h[8:1]/7,6,5,,,,,,6h[8:1]/3,4,5,,,,,,
{16}7/4-6[8:1],,6,5,7/4,,8,,{32}1,8,7,,5,4,3,,{8}8h[8:2],,C,,
{32}8h[8:1]/1,2,3,,,,,,2h[8:1]/7,6,5,,,,,,6h[8:1]/3,4,5,,,,,,
{16}7/2,,5,4,6/3,,8/1,,{32}6,5,4,3,2,1,8,7,
{16}6/2-4[8:1],,,,2/6,,,6,2-5[8:1],,6,,2/6,,,6,2-7[8:1],,6,,6/2,,,6,2-8[8:1],,6,,2/6,,,6,{32}2,3,4,5,6,7,8,1,{4}2z6[8:10],,,,,,,,
{4}7s3[8:10],,,,,,,,{4}1s5[8:10],,,,,,,,
{16}7h[8:2],,,,2h[8:2],,,,4,3,5,4,6,5,7,6,8b-4b[8:1],,,,2b-6b[8:1]/8,,,,7b-3b[8:1]/2,,,,1b-5b[8:1]/7,,,,
{16}6/1,,,7,7<4[8:1],,8,,7/1-5[8:1],,2-6[8:1],,1,,2,,7h[8:2],,,8,8,,1,,2q7[8:1]/5q1[8:1],,,,2/5,,,,
{16}3/8,,,2,2>5[8:1],,1,,2/8-4[8:1],,7-3[8:1],,8,,7,,2h[8:2],,,1,1,,8,,7p2[8:1]/4p8[8:1],,,,7/4,,,,
{16}4h[8:1]/5,,,6,6/4h[8:1],,7,,{16}3h[8:1]/5,,,6,6/3h[8:1],,7,,{16}2h[8:1]/5,,,6,6/2h[8:1],,7,,1-6[8:1]/8-3[8:1],,2/7,,1/8,,,,
{16}4/5,,3,4,2,,1/8,,6,5,7,,3,4,2,,1b/8b,,1bh[8:1]/8bh[8:1],,,,,,5b/4b,,5bh[8:1]/4bh[8:1],,,,,,
{32}1-7[8:1],2,3,4,{16},1,1>4[8:1],,2,,1-6[8:1]/6,,,1,1>4[8:1],,2,,1-5[8:1]/5,,,1,1,,2,,8-5[8:1]/3-6[8:1],,2/1,,8/3,,,,
{32}8-2[8:1],7,6,5,{16},8,8<5[8:1],,7,,8-3[8:1]/3,,,8,8<5[8:1],,7,,8-4[8:1]/4,,,8,8,,7,,1-4[8:1]/6-3[8:1],,7/8,,1/6,,,,
{16}2>5[8:1]/7,,1,8,2,,8,,1<6[8:1],,2,3,1,,3,,2>5[8:1],,1,8,{32}2,,,,1,8,7,6h[32:13],,,,,8,1,2,3h[32:5],,,,,,,,,
{16}5/4,,6,5,7,,8/1,,3,4,2,,6,5,7,,2,4,3,5,4,6,5,7,{32}2,3,4,5,6,7,8,1,2-7[8:1]/4-7[8:1],,,,,,,,2/4,
