&title=UNKNWON LEVELS
&artist=Yuta Imai
&first=0.04
&des=C7H5NO3S
&lv_5=14.0
&des_5=C7H5NO3S
&inote_5=
(165){4},,,,{1}B6/B5/B1/B2/Ch[1:1],
B8/B7/B3/B4,
B8/B7/B3/B4/Ch[1:1],
{4}B6/B5/B2/B1,{16}E7,B6,B5,E5,{2}B2/B3,
7<4[2:1],E1/B1/B2,
2>5[2:1],B7/B6/E8,
6V82[2:1],B5/B4/E4,
{1}5-3-7-1b[2:1]/4-6-2-8b[2:1],
5h[4:7]/B4/B3,
,4h[4:5]/B6/B5,
{4},7p6[4:1],{2}Cf,
{8}3b,3,3,3,5,5,5,{16}5,6x,
{8}7bx,7,7,7,2b,2,2,{16}2,1x,
8bx/7x,,,4x/5bx,,,{8}2bx/1x,{16}7,5bx,3,1,8bx,2,6,4,
7h[16:7],,,,,,,Cf,,,,,,,,,{2}4h[8:13]/5-3[8:1],
2>5[8:1],
{1}6-3[8:1],
{8}5/3,8,6/4,1,6/5,4,1/2,8,
7/5,6,3/4,1,8x/7,6/5x,4/2x,1h[16:1]/8xh[16:1],
8/1,7,8/1,3,6/5,7,4/3,2,
{16}1h[8:1]/6h[8:1],,,7h[8:1]/2h[8:1],,,1,1,{2}1s5[4:1],
{4}8bh,{8}4/8x-6[8:1],4,{4}4/8x-2[8:1],{8}3/8x-6[8:1],3,
{4}3/8x-2[8:1],{8}4/8x-6[8:1],4,4/8x-2[8:1],3,{4}3/8,
{16}3,4,2,6,5,7,2,1,3,7,8,5,{4}4b>4[2:1]*<4[2:1],
,,{2}Cf,
{4}6/5h[4:1],6V85[4:1],{2}5-2[8:1],
{4}3V15[4:1],5-8[8:1],,,3/4h[4:1],
3V14[4:1],{2}4V62[4:1],
{4}7V51[4:1],1V73[4:1],,4bx-8b[8:1],
{8},,5/1x-3[8:1],5,{4}5/1x-7[8:1],{8}6/1x-3[8:1],6,
{4}6/1x-7[8:1],{8}1x/5,5,{16}6,6,{8}5,{16}8-6[8:1],8,{8}1-5[8:1],
8x-4[8:1],1x-3[8:1],8x,1x,{2}8xh[2:1],
{1}1z5[2:1]*V73[2:1],
{4}7bh,{16}8xh[16:1],7h[16:1],8h[16:1],7h[16:1],4xh[16:1],5h[16:1],4h[16:1],5h[16:1],2xh[16:1],1h[16:1],2h[16:1],1h[16:1],
{4}2-6[8:1],2/8-4[8:1],8/2-7[8:1]*-5[8:1],2,
{8}6x-8[8:1]/4x-2[8:1],5x,{4}6x/4x,{16}2xh[16:1],1h[16:1],2h[16:1],1h[16:1],3xh[16:1],8h[16:1],3h[16:1],8h[16:1],
{8}3x-8[8:1],,,6x-2[8:1],,,{4}4x-8[8:1],
{16},,,,7xh[16:1],8h[16:1],7h[16:1],8h[16:1],5xh[16:1],4h[16:1],5h[16:1],4h[16:1],1xh[16:1],2h[16:1],1h[16:1],2h[16:1],
{4}1-5[8:1],1/3-7[8:1],3/8w4[8:1],8x,
5bxh,{12}7x,5x,6x,2x,4x,3x,8xs4[0.3636##1.0909]*z4[0.3636##1.0909],1x,{48}8x,,{24}1x,
{1}8x,
(157.14){2}5bx<4[0.3818##0.7838],(149.28)5x<4[0.4019##0.8262],
(141.42)5x<4[0.4243##0.8735],(133.56)5x<4[0.4492##0.9266],
(125.7)5x<4[0.4773##0.9865],(117.84)5x,
(110){4}1bxh,{16}6,5,,3,{8}4,{16}8,1,8/1,8/1,1/8,8/1,
8x<5[8:1],3,3,3,,2,2,2,4x>1[8:1],7,7,7,,6,6,6,
8x-5[8:1],1,1,1,,2,2,2,1x,1-7[16:1],7-5[16:1],5-3[16:1],,,,,{4}8xh[8:1],
{16}7h[4:1],8,8,8,1h[4:1],8h[32:1],8h[32:1],8,7h[4:1],8,8,8,
1,2,{8}3/4,{16}6,7,{8}8/1,{16}4/3,4/3,,6/5,{8}6/5,5/4,
{16}5b>2[8:1],,,,,7,7,7,1x<6[8:1],2,2,2,,3,3,3,
5x-2[8:1],1,1,1,,8,8,8,7x,7-5[16:1],5-3[16:1],3-1[16:1],,,,,8x-6[16:1],
8,8-2[16:1],8,,,,,5w1b[8:1],5h[32:1],5h[32:1],5h[32:1],{4}5x,
{16}6,6,4/7,4/7,2,2,4/3,4/3,{12}5x/7x,5x/7x,5x/7x,8x/4x,8x/4x,8x/4x,
(114.23){4}8x<6[0.5253##0.5065],(118.46)6x>4[0.5065##0.489],(122.69)4x>2[0.489##0.4727],(126.92)2x<8[0.4727##0.4575],
(131.15)8x<5[0.4575##0.4432],(135.38)5x>2[0.4432##0.4298],(139.61)2x<7[0.4298##0.4171],(143.84)7x<3[0.4171##0.4052],
(148.08)3x>7[0.4052##0.3939],(152.31)7x<3[0.3939##0.3838],(156.34)3x>7[0.3838##0.3732],(160.77)7x-3b[0.3732##0.1818],
(165){1}Cf,
{4}5h[8:7],{8}3,3h[2:1],,,,,{4}4h[8:7],
{8}6,6h[2:1],,,,,{4}2h[4:3],
{8}5V38[4:1],5,,,,,6,
6h[8:21],,4,{2}4h[8:3],
{4}E8,E1,E2,E3,
E4,E5,E6,E7,
6xh[8:1]/4h[8:1],3h[8:1]/B5,5xh[8:1]/3h[8:1],5h[8:1]/B4,
{8}4xh[16:1]/6h[16:1],3h[16:1]/7h[16:1],8h[16:1]/2h[16:1],1h[16:1],{32}E1/E2,E8,E7,E6,E5,E4,E3,E2,E1,E8,E7,E6,E5,E4,E3,E2,
{1}E1/Cf,
{16}7,8,,6,5,,,3,{8}4,{16}2,1,4x,4,4,4,
{1}4h[4:3],
{16}6,5,6,5,{8}6,{16}3,4,3,4,{8}3,{16}5,4,{8}5,
1x,2,3,4,5,6,7,8,
{16}1x,2,3,4,5,6,7,8,1,2,3,4,5,6,7,8,
{32}1x,2,3,4,5,6,7,8,1,2,3,4,5,6,7,8,1,2,3,4,5,6,7,8,1,2,3,4,5,6,7,8,
{1}1z5[2:1]/5xz1[2:1],
{4}2b-6[8:1],{8}2/8-4[8:1],7,8/1-5[8:1],2,{4}6-2[8:1]/1-6[8:1],
6/1w5[8:1],1,{8}5x/7x,5x/7x,{16}8,8,,6/4,
{8}4b/6b-8[8:1],5,6/2-6[8:1],3,{4}2/7>2[8:1]*<4[8:1],7-3[8:1],
2x-6[8:1]/7-1[8:1],2/7,{16}8x-4[8:1]/1x-5[8:1],2x/7x,{8}6x/3x,{4}8/1,
7x-3[8:1],{8}7/1V35[8:1],2,1/6<1[8:1],7,{4}2-7[8:1]/6v3[8:1],
2x/6,{8}2x-6[8:1]/8x-4[8:1],6x/4x,{4}2x/8x,{16}3,3,{24}8x,7x,6x,
{8}5bx<3[8:3],,,3b-1-7-5[8:3],,,{4}5b>5V31b[4:3],
{8},,,,,,,,6h[8:7],
3-5[8:1],,,,3-1[8:1],,,{4}6pp1[2:1],
,,3bv8[8:1],
{8}3/5V71[8:1],4,5/2-6[8:1],3,8/2>5b[8:1],{24}8x,7x,6x,{4}2x/5x,
{16}8,8/1,,3,{8}4/3,{16}6,6/5,,8,{8}7b/8b,{4}2xh`1xh,
{8}5h[16:1]/3h[16:1],7h[16:1]/5h[16:1],4/6v1[8:1],7,6/2V46[8:1],3,{4}1-5[8:1]/2x<7[8:1],
{8}1/2,,,6-1[8:1]/2-5[8:1],,6/2,{16},,,,8,
8,2,2,{8}4h[8:1],{16}3,3,1,1,{8}5h[8:1],{16}6,6,1,1,
{1}1bqq4[2:1]/6bpp2[2:1],
{4}1b-5[8:1],1/5,{16}3x,4,1,8,5,6,2,4,
8,6,{8}1h[8:1],{16}4x,3,8,1,6,5,8,2,6,4,{8}5h[8:1],
{16}2x,8,4,6,3,5,{8}1h[8:1],{16}8x,2,6,4,8,1,4,3,
{1}7-5-3-1v4[8:5],
{2}2bh[4:1],{16}6x,5x,{8}4x,{16}1x<6[8:1],2x,{8}3x,
{16}1p5[8:1],5x,{8}4x,{16}1>4[8:1],7x,{8}6x,{16}1q6[8:1],6x,{8}5x,{16}1,5x,{8}4x,
{16}6x,4,6,4x,6,5,{8}7b/4b,{16}E1,E3,E7,E5,E8,E2,E6,E4,
{1}Cf/2xp1<3b[4:3],
E
