&title=μ3
&artist=穴山大輔vs水野健治
&first=-0.53
&des=JoZhu
&lv_6=14+
&inote_6=(192)
,,,
{8}4,5,3h[2:1],,,,7h[2:1],,,,1h[2:1],,,,5h[2:1],,,,Ch[1:1],,,,,,,,
{4}8<4-8[1:1],,,,2h[2:1],,6h[2:1],,1V35-1[1:1]b,,,,7h[16:31],,C,,3hb[16:16],,,,
{16}E7,E6,E5,E4,E3,E2,E1,E8,6hx[2:1],,,,,,,,E3,E4,E5,E6,E7,E8,E1,E2,2hx[2:1],,,,,,,,
{16}E1,E8,E7,E6,E5,E4,E3,E2,E1/4x,5x,6x,7x,8x,1x,2x,3x,
{16}E5,B5,B6,,E3,B3,B4,,E1,B1,B2,,E7,B7,B8,,
{8}1h[8:4],,,5h[8:4],,,3h[8:4],,,7h[8:4],,,Ch[8:2],,,
{16}5,4,5,4,6,3,6,3,7,2,7,2,8,1,8,1,8h[16:17],,,,,,,,,,,,,,,,,,
{8}1/8-6[8:1],1,28,2,3/8v5[8:1],3,84,4,1/8-4[8:1],1,28,2,3,3,
{16}4,5,4,5,
{8}4-2[8:1]/8,8,74,7,6/4-1[8:1],6,54,5,8/4-8[8:1],8,74,7,6,6,3,3,
{8}5-1[8:1],,5b/2-5[8:1],,2bs6[8:3],,,,7b-3[8:1],,7b,,2b,1b-5[8:1],,1b,,,
{16}64,64,6h[8:3]/4,,,,,,5,5,6h[8:1],,4,4,6h[8:1],,3,3,6h[8:1],,2,2,6h[8:1],,1-5[12:1]b,1,6h[8:1],,
{16}1b,7,7,,3,5,2h[8:1],,6,4,7h[8:1],,3,5,4h[8:1],,7x,1,7,,2x,8,2,,7x,1,8,,2x,8,1,,
{16}7xhb[8:1],,,,3,4,2h[8:1],,6,5,7h[8:1],,3,5,2h[8:1],,6,4,7h[8:1],,3,5,1h[8:1],,6,4,8h[8:1],,1bw5[8:1],,,,1b,,,,
{16}5,4,6,,4,5,3,,5,4,6h[8:1],,
{16}3,3,6h[8:1],,2,2,6h[8:1],,1,1,6h[8:1],,1,1,7h[8:1],,
{12}1,8,2,7,1,8,2,7,2,6,2,5,
{16}3,4,2,5,3,4,2,8,8,5,6,4,7-3[8:1]b,5,6,4,
{16}7b-5[8:1],,,,7/1-5[8:1],,,,1/6-8[8:1],,,,64,,3,,4xh[8:1],8,8,,4xh[8:1],7,7,,4xh[8:1],6,6,,1x^6[8:1],,2,,
{16}3-8[8:1]/1,,,,3/7-5[8:1],,,,7-3[8:1],,,,7/2-5[8:1],,1,,2/7-1[8:1],,,,7-5[8:1],4,4,,7-3[8:1],3,3,,7-4[8:1],2,2,,7,1,1h[4:1],,,,,,
{16}7-4[12:1],8,7,8,7,,,,2-5[8:1],1,2,1,2,,,,8,7,6h[4:1],,1,2,3h[8:1],,4-8[8:1],3,5,3,4,,,,5-1[8:1],6,4,6,5,,,,
{12}8,2,7,3,6,4,5h[12:1],,,
{8}1-5[8:1],1,1xV37[8:3],,,7V15[8:3],,,5V37[8:4],,,,7-1-3-5[8:5],6,5,,,5-1[8:3],,6-1[8:1],6,,,,
{8}8-4[8:1],8,8^5[4:1],,5^2[4:1],,2^7[4:1],,7^4[4:1],,,,1,2,3h[8:6],,,E1/B8/E8,,,B6/B5/E6/E5,,,,
{8}8-4[8:1],8,8x^6-2[8:3],,,2^8-4[8:3],,,4^6-2[8:4],,,,2<4[8:5],3,4,,,4z8[8:3],,3v8[8:1],3,,,,1-5[8:1],1,1^4[4:1],,4^7[4:1],,7^2[4:1],,2^5[4:1],,,,E8,E6,
{8}1b-5[8:1]b,1b,,7b,7bh[4:1],,
{16}1,2,3,4,5,6,7,8,
{32}1-5[8:1]b/5,26,37,48,5s1[2:1],6,7,8,
{8}1b/5b,,,6,7h[2:1],,2,2,3V51[4:1],3,,,8,7,6,5-8[8:1],,5,2,,,7/3,73,,
{16}72,6,5,41,5,6,72,6,5,41,5,6,
{16}27,3,4,58,4,3,27,3,4,5,4,3,
{24}2b/7b,6,5,4,3,2,1,8,7,6b/2b,3,4,5,6,7,8,1,2,3b/8b,7,6,5,4,3,2,1,8,
{8}7b,4x,3x,7b-3[8:1]b,7b,,1b,1bh[2:1],,7,6,5,,4-2[8:1],4,4-6[8:1],
{16},,4-8[8:1],,,,4,,,,7,,7,,3,6,3,6,3,,5,4,5h[2:1],,,,3,,2,,1-5[8:1],,,,1b,,,,8,8,4,,7-4[8:1],7,3-1[8:1],,7b,,3b,,,,8b,,
{16}8b,A3,E4,E5,A5,A2,B2,C,B6,A1,E1,E8,A7,,,,
{16}Chf[4:1]/2-5[8:1],,,,2b,,,,
{8}8/3h[8:1],7,6^1[8:1]/3h[8:1],,3h[8:1],,3h[8:1],,3h[8:1]/1-5[8:1],,3h[8:1]/1,,3/6h[8:1],2,1V35[4:1]/6h[8:1],,6h[8:1],,6h[8:1],,
{16}6,5,7h[8:1],,3,4,2h[8:1],,6,5,7h[8:1],,3,4,2,,8hxb[8:1],,,,
{8}2h[8:1]/7,,2h[8:1]/7,6,2h[8:1]/5-1[8:1]b,,5x/2h[8:1],,2h[8:1],,
{16}2,2,8,,2,2,7,,6/3,,63,,4,5,4,5,3,6,2,7,1-5[8:1],,,,1xh[8:1],,,,2,,3,,4h[2:1],,,,6-1[8:1],,,,
{8}6b,,4-8[8:1],,4b,,7-4[8:1],,7b,,1^6[8:1]*^4[8:1],,1-5[8:1]b,,1,,
{8}6x,6,6,6,6x/4h[4:1],6,6,6/3x-8[8:1],6/3x,6,6x,7,7x/1-3[8:1],6x,6x/1-5[8:1],7x,7x-4[8:1]/1,,7-3[8:1],,1/7,1,1x,2,
{8}2,2-5[8:1]/6-4[8:1],,2/6,,,3x/5-1[8:1],3x,3x/5,3,3,3,3/8h[8:3],3,3,3,3/6b,3,3/1b,3,3/4b,3,3bh[8:1],,
{12}6,5,7,4,6,5,
{16}7,7,4,6,3,5,4,6,
{32}3x,B3,,,,,7x,B7,,,,,1x,B1,,,
{16}7,6,5,4,1,2,3,4,
{8}7/1b,7/1b,7/2b,7/2b,7,7/3b,7/2b,7/1b-3[8:1],7,7/1b-5[8:1],7,7/1b,7,7/4b-1[8:1],7/4b,7/4b,
{16}7,8,6,8,5h[8:1],,,,1,8,2,8,3h[8:1],,,,4,6,3,5,4,7,2,6,3,5,4,6,1,7,2,,
{8}2/8b,2/7b,2/6b,2/5b,2,2/6b,2/6b,2/7b,2,2/7bv4[8:1],2/6b,2/7b-1[8:1],2,2/7b,2,2,
{16}2,5,3,4,2,5,3,4,2,2,
{32}8,7,6,5,4,3,2,1,8,7,6,5,
{8}4b/8b-3[8:1],,8/5-8[8:1],,5/1>8[8:12],,1,,,,,,,,,,
{8}8-2-4-6-8[4:5],1,2-5-1[2:1]b,,,,,,,,8^2[4:1],,2^4[4:1],,4-7-5-1[4:3],,,,,,1<5[2:1],,,,1,2,3h[8:6],,,7h[8:5],,,,,1,,72,,
{8}Ch[8:3],,,B3/B2/E3/B6/B7/E7,,,E8/B8/B1/E2,,,,E1/B1,B7/E7,E3/B3,,B5/E5/B4,,B6/B7/B3/B2,,E1/B1/B8,,,C,,,
{8}A8,E1,E2,A2,A7,B7,C,B3,A6,E6,E5,A4,E2,E8,E6,E3,E7,E4,
{16}8,7,6,5,4,3,2,1,
{32}8-4[8:1]b/4,73,62,51,4,3,2,1,
{8}8b,,
{24}3,5,3,5,3,5,{16}3,6,4,7,5,6,4,7,3,,2,,1,7,2,8,1,7,2,8,2,1,3,7,8,6,2,7,
{24}1,8,1,8,1,8,{16}1w5[8:1],7,2,8,1,,,,3,4,2,6,5,7,3,4,1,6,5,8,3,5,1,6,4,8,7,6,1x-4[8:1],2,3,,
{16}1b-5[8:1],,5,5,1b-3[16:1],,6,6,1b,,7,7,
{24}1b-5[12:1],2,3,8x-4[12:1],7,6,{16}1x-3[12:1],,8x,,1x,,,,
{16}7b/4b,,7b/4hx[8:1],8,1-5[8:1],4,3,2,1,,,,{16}2b/5b,,2b/5hx[8:1],1,8-4[8:1]b,5,6,7,8,,,,
{24}7b/2b,3,4,5,6,7,8,1,2,3b/7b,6,5,4,3,2,1,8,7,6b/1b,2,3,4,5,6,7,8,1,2bh[16:5]/Cf/B7/B6,,,,,,,,,
{8}82,45,17,45,18,35,18,46,28,35,17,,2b^5[8:1]b,2b,,8b^5[8:1]b,8b,,
{4}A1/E1/E2,C,E6/E5/B5/A6/A4,
{16}7-3[8:1],1,1,,7-5[8:1],,2,2,7,,1,,2-6[8:1],8,8,,2-8[8:1],,7,7,2x,,6x,,6x-8[8:1],2,2,,6-2[8:1],,1,1,6,,4,,3-5[8:1],7,7,,3-7[12:1],,6,6,3,,8,,
{16}1x,2,3,4,5,6,7,8,1,2,3,4,8x,7,6,5,4,3,2,1,8,7,6,5,
{24}3,4,3,4,,,5,6,5,6,,,2,7,2,7,,,1,8,1,8,1,8,
{32}1,2,3,4,5,6,7,8,1,27,6,5,4,3,2,1,8,7,6,51,2,3,4,5,6,7,8,1,2,53,6,7,8q4[8:1]*p4[8:1],,,,,,,,
{4}8b/Cf,,C/B1/B3/B5/B7,
{8}1^6[8:1],2,3,4,5^2[8:1],6,7,8,1-6[8:1],2,3,4,{16}5,,4^1[12:1],5,4,5,4,,
{8}8-3[8:1],7,6,5,4-7[8:1],3,2,1,8^3[8:1],7,6,5,4^7[8:1],3,2,1,8v2[8:1]*v6[8:1],,
{8}8bw4[8:1],,8b,,,,1b-3[8:1],,1bv4[8:1],,7b,6bh[4:1],,
{24}2b,3,4,5,6,7,8,15,6,7,8,1,2,3,4,51,2,3,4,8,7,6,5,7,6,5,41,
{32}8,7,6,5,4,3,2,1,8,7,6,7,8,1,8,7,6,5,4,3,2,1,8,72,3,4,5,7,8-5[8:1]*p1[16:8],1,2,3,4,5,6,7,
{8}8b,,,,,,
{4}8b^2v3^5[1:3]b/7h[1:4],,,,,,,,,,,,,,,,C,
