&title=Waking Shadows
&artist=Sad Keyboard Guy & Gardens
&first=0.034
&lv_6=15
&des_6=aiyimono33
&des=aiyimono33
&inote_6=(190)
{1},,
{16}4>5[4:7]/5,,,,,,,,,,,,5,,,,5,,,,,,E5,,,,,,4,,,,4>5[4:7],,,,,,,,,,,,5,,,,5,,,,,,C,,,,,,4,,,,4>1[1:1],,,,,,,,,,,,,,,,5<8[4:3],,,,,,,,,,,,1,,,,1,,,,,,7,,,,,,5-8[4:1],,,,4,,,,,,2,,,,,,4-1b[4:1],,,,5<4[4:7]*<4[4:7],,,,,,,,,,,,4,,,,4,,,,,,E5,,,,,,5,,,,5<4[4:7]*<4[4:7],,,,,,,,,,,,4,,,,4,,,,,,C,,,,,,5,,,,5b<8[4:3],,,,,,,,,,,,4>1[4:3],,,,,,,,,,,,,,,,8,,,,
{16}8,,,,,,2/7,,,,,,3/6,,,,4h[8:3]/5,,,,,,2h[8:3],,,,,,6h[4:1],,,,8qq6v7pp1pp3v4[4:13]*pp2v1qq7qq5v4[4:13],,,,,,,,,,,,,,,,,,,,,,,,,,,,,,,,,,,,,,,,,,,,,,,,,,,,,,,,,,,,
{32}4x,5x,6x,7x,8x,1x,2x,3x,
{16}4bx/5bx,,,,2/7,,,,5<8[8:1]/4,,,,3,,,,2>5[8:1]/1,,,,8,,,,4/7v4[8:1],,,,3,,,,2/5,6,7,8,2,3,4,5,8,7,2,3,7,6,3,4,7,1,6,2,5,4,6,3,7,2,8,1,2/7,,,,3,5,4,6,8,7,1,8,2,6,3,5,4h[4:1],,,,6,5,6,,4,5,4,,6,5,7,,4,5,3,,2/8,,7,5,6,,4/5,,1/7,,2,4,3,,4/5,,6/8,,6/8,,1/3,,1/3,,5/7,,5/7,,2/4,,2/4,,
{16}1/8b,,1bh[16:3]/8h[16:3],,,,7b/4,,7/4b,,6b,5b,6b,,,2b/4,,,3/5b,,,4b/6,,,2b,8b,2b,,7b,1b,7b,,4/5b,,2bh[16:3]/6h[16:3],,,,1/5b,,1b/5,,3b,4b,3b,,,1/2b,,,3/8b,,,4b/7,,,3b,5b,3b,,6b,4b,6b,,3/7,,3/7,,2,1,2,1,3,4,3,4,8,7,8,7,5,6,5,6,3,4,2,4,1,5,2,6,3,7,4,8,1,7,2,6,4,5,3,4,2,5,1,6,
{32}8,,7,,8,1/7,2/6,3/5,
{16}4h[2:1],,,,,,,,C,,,,,,,,
{24}1/2,3,4,
{16}5,,7-4[8:1],,7,,2-5-1[4:1],,2,,7,,,,,,8,,8,,1/7-4[8:1],,4V61[4:1]/3,,7/1,,3,,,,
{16}2-5[8:1],,8-6[8:1],,2,,8,,3,,
{24}8,1,2,
{16}3b<8[4:1],,,,8x-4[8:1],,1,1x,
(175)
{16},2x,2,,
(185)
{16}2xV41[4:1],,4,,2V46b[8:1],,,,
(190)
{16},,,,1h[16:3]/7h[16:3],,,,2-4b[8:1],,6V82[4:1]*V82[4:1],,2V46[8:1],,6,,,,,,
{16}8,4,7,3,2/6,,2/6,,
{16}4p7[8:1]/8p3[8:1],,2/6,,,,,,
{16}1b-5[8:1]/5b-1[8:1],,,,,,,,3>8[8:1]/7<4[8:1],,4/8,,,,,,
{16}2/6,,3,4,,5,4,,3v8[8:1]/5v8[8:1],,2/6,,,,,,
{24}1/7,2/6,3/5,
{16}4,,1V75[4:1],,7,,1,,4-7[8:1],,4,,1h[4:1],,,,
{24}7x,8,1,2,3,4,5,6,7,
{48}D2,A2,D3,A3,D4,A4,D5,A5,,,,,
{32}1,8,7,6,5,4,3,2,
{16}1b/8b,,,,2-4[8:1],,6-8[8:1],,2-6[8:1],,6,,2,,,,5/7,,6,4,5,,3,4,1p5[8:1]*q5[8:1],,3/7,,,,,,
{16}4-1[8:1]/6h[4:1],,,,,,8,,8/2>5[8:1],,5,6,7-4[8:1]*-3[8:1]/2,,7,,,,,,2/5,,2/5,,1-5[8:1]/7<4[8:1],,3/5,,,,,,
{16}2>5[8:1]/8h[4:1],,,,,,8,,8-4[8:1]/3h[4:1],,,,,,,,
{16}2,,2,,
{24}4,3,5,
{16}3,,6,5,6,5,8<1[8:3],,8h[4:1],,,,,,B8,C,B4,A4,E1,B1,B2,E3,E7,B6,B5,E5,D1,A1,D2,A2,D7,A6,D6,A5,B4,B8,B2,B6,Chf[4:1],,,,B4/B8/B2/B6,,,,
{16}8x,,,,4/7,,,,6,,4,,5,,3,,8-4[8:1],,,,1/8,,,,2,,,,3h[4:1],,,,4,,,,2/5,,,,3,,5,,4,,6,,1/8,,,,
{16}2h[4:1]/7h[32:9],,,,,,,,3/4,,,,3,,,,3/B4,,,,3,,,,3/C,,,,3,,,,3/B8,,,,3/5,,2/6,,1/7,,,,7,,,,7/C,,,,7-3b[8:1]/B5h[4:1],,,,,,,,,,,,,,,,
{16},,1,8,1-5[8:1],,,,1/7-1[8:1],,,,7x-5[8:1],,5-3[8:1],,2x-5[8:1]/7,,1x-6[8:1],,2,,1,,4x>1[8:1]*<7[8:1],,4,,,,,,
{16}2x-6[8:1]/6,2/6x,2x/6,,5b-8[8:1],,,,1b-5[8:1]/5,,,,7b-4[8:1]/1,,,,3b/7,,3,,1b-4[8:1]/6b>4[8:1],,,,1b/6b,,,,3b/7b,,,,1,,,,2-8[8:1]/5,,3-7[8:1],4,2,,3,,4h[4:1],,8,,8>7[4:1],,,,8,,,,1q5[8:1],,1,,5,,7,,7-5[8:1]*-3[8:1],,,,7,,,,1,,,4,3-8[8:1],,5,,5-3[8:1]*-8[8:1],,,,5<4[4:1],,,,5/8x,,,,5h[16:3],,,,3h[16:3]/7h[16:3],,,,1<6[8:1],,1,,1/5,,,,4>1[8:1],5,6h[8:1],,4,,8,,7<4[8:1],8,1,,4,3,2,,2,,1/5,2/6,3/7,,3/7,,8-3[8:1],,8,,8/4-6[8:1],,,,1/4,,,,2/8,,3/7,,4/6-1[8:1],,,,3-5[8:1]/6,,,,3/8,,,,7,3,6,2,5h[4:1]/1x-5[8:1],,,,,,7,,7<4[8:1]/3h[4:1],,8,,,,,,8-4[8:1]/2h[4:1],,,,,,2,,6h[4:1]/2>5[8:1],,1,,,,,,3/7,,6,4,6,,3,5,,,4/6,,8,,8,,1>4[8:1],,,,5h[4:1],,,,
{24}6,7,8,1,2,3,4,5,6,7,8,1,
(95)
{16}5>5>4>3>2<1<8<7<6>5>5>4>3>2<1<8<7<6>5b[2:1],,5h[8:1],,1hb[2:1],,,,,,,,
{64},Cf,,,
{16},,
{32}3/7,,3/7<3[16:1],,,,2h[16:1]/8h[16:1],,,,3-8[16:1]/7b,,2x,,2,,3b/7-4[16:1],,6x,,6,,2<3[8:1]/7b,,3x,,3,,2b/6x,,6,,,,Chf[16:1],,E7/B6/B2/E3,,,,1/8x,,2b-8[16:1]/7,,,,3x/4,,2/5b,,5-2[16:1],,6,,4x,,3/7x,,5/6b,,,,8,,2x,,1/7x-1[16:1],,6h[8:1],,,,5-2[16:1],,4h[8:1],,,,6>7[8:1],,7h[16:1],,,,,,,,,,,,
{32}1,,5,,2,,3/4-8[16:1],,7x/8,,1/6,,2/5x,,3b/4b,,1,,1/7,,
{48}7,6,5,4-8[16:1],,,1,,,1,2,3,
{32}4h[16:1],,7b,,6,,1/5,2/6,3/7,4/8,5xw1[16:1],,5,,3/7,,3/7,,5b,,,,
{48}3/7,,,3/7,2/6,1/5,
{32}4-7[16:1]/8-3[16:1],,,,4h[8:1]/8bh[8:1],,,,,,,,2h[16:1]/6h[16:1],,,,
{32}3/4-6[16:1],,2b/5,,,,1b/2,,4/8-3[16:1],,7x,,5x,,6,,4<3[8:1]/8,,2x,,5x,,3,,6h[16:1]/4b,,,,Ch[8:1],,,,
{32}1v4[16:1]*v6[16:1],,4h[8:1]/6h[8:1],,,,,,
{32}1b,,,,
{64}3,2,1,8,7,6,5,4,
{32}3h[32:3],,,,2h[32:3]/4h[32:3],,,,1h[32:3]/5h[32:3],,,,6h[32:3]/8h[32:3],,,,
(190)
{16}7b,,,,8,1,2,3,8,7,6,5,
{12}3,4,3,5,3,6,
{16}6,,,,6,,,,6,,,,6,,,,,,,,,,,,,,,6,6,,,,,,,,,,,,,,,,1,8,7,6,1,2,3,4,
{12}6,5,6,4,6,3,
{16}3,,,,,,,,3,,,,,,,,3,,,,,,,,,,,,
{24}3,,4,,,3,,4,,,,,
{16},,,,3,,,,,,,,
{12}3h[12:1],4h[12:1],5h[12:1],
{16}6h[12:1],,,,
{12}6,,,6,,,,6h[3:1],,,,5h[3:1],,,,4h[3:1],,,,3h[3:1],,,,,,6,6,
{12}3h[12:1],4h[12:1],5h[12:1],
{16}6h[12:1],,,,,,,,6,,,,,,,,
{12}3h[12:1],4h[12:1],5h[12:1],
{8}6h[12:1],,
{24}6,,,,4,,5,,,4,,5,
{16},,,,,,,,5b,,,,,,,,4h[4:3],,,,,,,,,,,,
{8}5h[4:1],,6h[4:3],,,,,,
(101)
{12},,,
(190)
{16}3h[2:1],,,,,,,,
{16},,,,4,,,,5pp4[4:3],,,,,,1,,,,,,E3h[32:1],,,,1,,,,,,,,,,,,4,,,,5pp4[4:3],,,,,,1,,,,,,C,,,,1>4[1:1],,,,,,,,,,,,,,,,8<5[4:3],,,,,,,,,,,,4,,,,4h[8:3],,,,,,3<6[8:3],,,,,,2,,,,2>5[2:1],,,,,,1,,,,,,8,,,,
{16}E7h[32:1]/4qq5[4:3],,,,,,,,,,,,8,,,,7,,,,,,6,,,,,,5,,,,4qq5[4:3],,,,,,,,E7h[8:1],,,,8,,,,7,,,,,,6,,,,,,Ch[4:1],,,,8b<5[1:1],,,,,,,,,,,,,,,,1>4[4:3],,,,,,,,,,,,5,,,,5h[8:3],,,,,,3h[8:3],,,,,,1h[4:1],,,,7h[8:3],,,,,,5h[8:3],,,,,,1q5[8:1]*p5[8:1],,,,1bq4[2:3]*p6[2:3],,,,,,,,,,,,,,,,,,,,,,,,,,,,,,,,
{16}3b/7b,,,,3/7,,1b/5,,,,1/5,,3-8[8:1]/7b-4[8:1],,,,3b/7,,,,1/5,,7b/3b,,,,7/3,,5b/1b<5[8:1]*>5[8:1],,,,1b-6-8-5[2:3]*-4-2-5[2:3],,,,,,,,,,,,,,,,,,,,,,,,,,,,,,,,
{16}3b/7b,,,,3/7,,1/5b,,,,1/5,,3bv1[8:1]/7v5[8:1],,,,3/7b,,,,3/7,,3b/7b,,2,8,4,6,
{16}1-5b[8:1],,,,
{16}1b/6-1[8:1],,,,6/2-6[8:1],,,,2/8-3[8:1],,,,4-8[8:1]/8,,,,4/7-4[8:1],,,,1-6[8:1]/7,,,,1/5-1[8:1],,,,2>5[8:1]/5<8[8:1],,,,2/5,,,,1/2,,3,,4/5,,6,,7/8,1,2,3,4/5,6,7,8,2,1,2,1,3,,4,,5/6,,7,,
{16}8,7,6,5,4/2,,1,,8/4,1/5,2/6,3/7,8/4,,4/8,,
{16}7,6,5h[8:1],,1,2,3h[8:1],,8,7,6h[8:1],,
{16}4,,3/5,,2/6,,2/6,,
{16}1,7,1,,8,2,8,,1,7,2,8,1,7,2,8,
{24}1,2,3,5,6,7,
{32}1,2,3,4,5,6,7,8,
{16}1h[4:1],,,,
{16}5b,,4hb[16:3]/6h[16:3],,,,3/8b,,3b/8,,2b,1b,2b,,,4b/7,,,2/5b,,,3b/6,,,
{16}2b,4b,2b,,7b,5b,7b,,1/8b,1b/8,2h[8:1]/7bh[8:1],,,,3b/4,,2/5b,,1b/7,1/7b,1b/7,,,1b>7[2:1]/7b<1[2:1],,,,,,,,,,,,,
{16},,,,
{16}1b,,8bh[16:3]/2h[16:3],,,,7/4b,,7b/4,,6b,5b,6b,,,8b/3,,,4b/5,,,1/6b,,,
{16}7b,8b,7b,,2b,1b,2b,,5/4b,5b/4,6h[8:1]/3bh[8:1],,,,7b/8,,6/1b,,5b/3,5/3b,5b/3,,2bz6-4[8:5]/6bs2-4[8:5],,,,,,,,,,,,,,
{16},,,,
{16}4/6,,8,,2,1,3,2,4,,4,5,3,,2/6,,3/5,,1,,7,8,6,7,5,,5,4,6,,3/7,,2,1,2,,8,1,8,,2,1,4,5,8,,1/6,,7,8,7,,1,8,1,,7,8,5,4,1,,3/8,,
{16}2,4,3,,6,5,7,,1,1,3,3,5,5,7,,7,5,6,,3,4,2,,8,8,6,6,4,4,2,,2,4,3,,7,5,6,,1,8,1,8,{32}2q5[4:3],3,4,5,6,7,8,1,
{16},,8h,,,8h,,,8h,,,8h,,,8h,,
(95)
{48}7b/3b,2/6,1/5,
{32}8/4,,,,1x>4[16:1],7,5,5,5,5,5,,1x,,5<8[16:1],5,5,5,5,,,,
{32}4/5,,3,,1/2,,8,,
{48}7b/3b,2/6,1/5,
{32}8/4,,,,
{32}1,5,3-1[16:1],6,4,6,5,,4/7,,8-4[16:1]/3,,,,7-5[16:1],,3,,4/8,,2,,7/3,,1,,
{48}6b/2b,7/3,8/4,
{32}5/1,,,,8x<5[16:1],2,4,4,4,4,4,,8x,,4>1[16:1],4,4,4,4,,,,
{32}5/4,,6,,8/7,,1,,
{48}2b/6b,3/7,4/8,
{32}1/5,,,,
{32}8,4,6,,3/5,,2h[8:1],,,,4-7[16:1],,5,,1-5[16:1],,2,,4,,2,,1,,,,
{48}3b/7b,2/6,1/5,
{32}4/8,,,,
{32}1x-4[16:1],5,3,3,5,4,6,,1/6,,7x-3[16:1],7,5,6,4,,5/4,,
{32}3/7,,2,,1/5,,6,,
{48}3b/7b,2/6,1/5,
{32}4/8,,,,5,4,7,5,6,4,3/5,,1,,5-2[16:1],,4,,8-4[16:1],,7,,5,,7,,8,,,,
{48}1b/5b,2/6,3/7,
{32}4/8,,2-8[16:1]/6,,4,,4h[8:1],,,,2-5[16:1],,5,6,7,,7h[16:1],,2,,1,,3-8[16:1]/7-4[16:1],,8,8,4,,2/6,,3/7,,,,1/5,,3,,1/5,,7,,1/5,,3,,1/5,,1/5,,3/7,,5,,3-6[16:1]/7-2[16:1],,2/6,,1s5[8:3]/5,,1/5,,
(190)
{1},
{16}8b,,3,4,3,,5,4,5,,3,4,2,,5,4,6,,4,5,3,,6,5,7,,4,5,3,,5,4,6,,3,4,2,,7,5,6,,2,4,3,,6,4,5,,3,5,4,,8,1,7h[8:1],,5h[8:1],,3h[8:1],,1,,
{16}6,5,6,,4,5,4,,6,5,7,,4,5,3,,5,4,6,,3,4,2,,5,4,6,,4,5,3,,6,5,7,,1,8,2,,7,5,6,,4,5,3,,1,2,8,,3,7,2v5[8:1]/6-1[8:1],,1/5,,2/6,,,,4/7,,
{16}3,4,3,,5,4,5,,3,4,2,,5,4,6,,4,5,3,,6,5,7,,4,5,3,,5,4,6,,3,4,2,,7,5,6,,2,4,3,,6,5,7,,3,4,2h[8:1],,4h[8:1],,6h[8:1],,8,,1,,2/7,,
{16}6,5,6,,4,5,4,,6,5,7,,4,5,3,,5,4,6,,3,4,2,,5,4,6,,4,5,3,,6,5,7,7,3,4,2,2,7,5,6h[8:1],,,,3,4,1,1,6,5,8,8,1-6[8:1]/2-5[8:1],,,,1/2,,,,
{16}4,4,5,,3,3,4,,2,2,6,,5,5,7,,8,8,6,,1,1,5,,2,2,4,,3,3,1,,4,4,8,,5,5,7,,1,1,4,,2,2,8,,5,5,7,,4,4,6,,3,3,5,,
{16}3,4,3,,5,4,5,,3,4,2,,4,3,5,,4,5,3,,5,4,6,,5,6,4,,6,5,7,,4,5,3,4,2h[8:1],,5,4,6,5,7h[8:1],,4,5,3,6,2,7,1,8,2,4,3,6,5,7,1,8,1w5[8:1],,3/7,,1,,,,
{16}8,8,2,,7,7,3,,6,6,4,,5,5,3,,1,1,2,,8,8,3,,7,7,4,,6,6,5,,7,7,4,,6,6,3,,5,5,2,,4,4,1,,8,8,2,,7,7,3,,6,6,4,,
{16}6,5,6,,4,5,4,,6,5,7,,5,6,4,,5,4,6,,4,5,3,,4,3,5,,3,4,2,,7,5,6,,2,4,3,,5,4,7,8,6h[8:1],,4,5,2,1,3h[8:1],,7,5,6,3,4,2,8,1,8-5[16:3]*-3[16:3],,6/2,,8,,,,,,
{16}Chf[8:1],,6hb[8:1],,,2hb[8:1]/E5f,,,E2f/7hb[8:1],,,3hb[8:1]/E6f,,,E3f/8hb[8:1],,,4hb[8:1]/E7f,,,E4f/1hb[8:1],,,5hb[8:1]/E8f,,,
{16}8x-4[8:1],,,,,,3,,
{16}E1f/3hb[8:1],,,7hb[8:1]/E5f,,,E8f/2hb[8:1],,,6hb[8:1]/E4f,,,E7f/1hb[8:1],,,5hb[8:1]/E3f,,,E6f/8hb[8:1],,4hxb[4:1],,,,
{16}1,,1,,1,,1,,3,,3,,3,,3,,5,,5,,5,,5,,7,,7,,7,,7,,
{16}1,8,2,7,3,6,4,5,3,4,2,5,1,6,8,7,
{24}1,8,1,7,1,6,1<8<7<6>5>4>3>2[4:1],5,1,4,1,3,
{16}1h,,,,,,,,
{16}1b-5[8:1]/8b,,,,
{16}6,,6,,4/7b,,3,,8b-3[8:1],,8,,2b-5[8:1]*-6[8:1]/8,,,,2b,,,,
{16}7,8,7,1,6b-1[8:1],,6,,2b>5[8:1]/6,,,,2b/8-4[8:1],,6b,,
{16}4,,2,,2b-6[8:1],,1,,4,,5,,7b>5[4:1],,4,,7,,5,6,
{16}7bp3[8:1]*q3[8:1],,,,7,,,,2/4,,1b-5[8:1]/5,,,,1/5bw1[8:1],,,,5b,,,,
{16}3b-6[8:1]/7b-2[8:1],,,,3/7,,,,1/5,4/8,3b-8[8:1]/7-4[8:1],,,,3/7b,,,,
{16}1,,2,,3,,4,,5,,6,,
{16}7b,6,5,4,
{32}1b,2,3,4,5,6,7,8,
{16}1/5,,2,4,,7,5,,
{16}3b/6b-1[8:1],,6,,2-6[8:1],,2,,8-4[8:1],,8,,3,,2,,
{24}1-5[8:1]/5b,2/6,3/7,4/8,,,
{16}1b,,,,3-8[8:1]/7,,2,,7<4[8:1],,6,,2v5[8:1],,1,,5V38[4:1],,6-1b[8:1],,7,,
{16}6,,,,1x/8x,,2b/7b,,3b/4,,6b/5,,4b>1[8:1]/5b<8[8:1],,,,
{16}4/5,,,,,,
{24}1b/8b,2/7,3/6,4/5,,,
{16}3b/6b,,7-3[8:1]/8-4[8:1],,,,7b/8b,,,,1b<6[8:1]/2b>5[8:1],,,,1b/2b,,,,
{16}3bv8[8:1]/7bv4[8:1],,,,3b/7b,,,,1/5,2/6,
{16}3bh[8:1]/7bh[8:1],,,5h[8:1]/6bh[8:1],,,2bh[8:1]/4h[8:1],,,1h[8:1]/7bh[8:1],,,4b/5b,,,,6bh[8:1]/2bh[8:1],,,4h[8:1]/3bh[8:1],,,7/5b,,
{16}5-1[8:1]/7b,,,,,,,,
{24}2/8,3/7,4/6,5,,,
{16}2b/8b,,,,1-5[8:1]/8,,1,,7-4[8:1],,7,,3,,3,,2-5[8:1],,5,5,2-6[8:1],,6,6,2,,8,,
{24}5b/8b,4/7,3/6,2/5h[8:1],,,
{16}2-5[8:1],,3,,6-1[8:1],,7,,4-1[8:1],,3,,8-5[8:1],,7,,2-6[8:1],,3,,2,,
{16}5,4,3,2,1,8,7<4[8:1],,7,,1-4[8:1],,1,,8-5[8:1],,8,,2>5[8:1],,2,,5,6,7,8,1-5[8:1],,1,,2-4[8:1],,2,,8-6[8:1],,8,,1,,1,,2>5[8:1]/5-1[8:1],,1,,,,,,
{16}8<5[8:1]/4-1[8:1],,3/7,,,,,,
{16}2-5[8:1]/6-1[8:1],3/7,4/8,,2b/6b,,,4b/8b,,,
{24}2b/6b,,,
{24}1,2,3,4,5,6,7,8,1,2,3,4,
{16}5-1[8:1],,5,,7-4[8:1],,7,,2,,2,,5,6,7,8,1-5[8:1],,1,,2-6[8:1],,2,,7,,7,,5,4,3,2,1/8,7,6,5,
{24}3,4,2,4,,,
{16}1,8,1,8,1,,2/7,,5/6,,
{16}4/8,,2,1,3,,8-4[8:1],,8,,1-3[8:1],,1,,5-7[8:1],,7-1[8:1],,5,,3,4,5,6,7,8,
{16}1-5[8:1],,1,,4-7[8:1],,4,,1,,1,,2/8,,3/7,,4/6,,2/8,,1,1,1,1,
{32}1,8/2,7/3,6/4,5,,,,2b,3,4,,,,8b,7,6>7[4:1],,,,1b,2,3,,6,,,,,,,,,,,,,,,,
{24}2b/6b,3/7,4/8,1/5,,,
{16}4,,5b,,3,4,3,4,1bh[8:1],,5,,3b/7,3/7b,3b/7,,3b/7b,,,3b/7b,,,3b/7b,,,3b/7b,,,
{24}3b/7b,4,5,6,,,
{16}8h[8:1],,2,1,2b,,2,,4h[8:1],,3,,5h[8:1],,4,,6h[8:1],,5,6,8b-4[8:1],,1,,2,,,,
{16}1/5,,3,4,,2/5,2/5,,7/8,,4/5,,1/2,,4/5,,7,6,8,,4/5,,2,3,1,,4/5,,1/8,,1/8,,
{16}2bh[4:1]/7b,,,,4h[4:1],,,,5h[4:1],,,,7h[4:1],,,,1,,1/5,,8,4,8,4,
{24}5/1,6/2,3/7,4/8,5/1,6/2,3b/7b,,,,,,
{32}7/8b,1,2,3,,,8b,1,2,3,,,1b,2,3,4,,,1b,2,3,4,,,2b,3,4,5,,,2b,3,4,5,,,3b,4,5,6,,,3b,4,5,6,,,4b,5,6,7,8,1,2,3,4h[8:1],,,,,,,,
{32}1b/2,8,7,6,,,1b,8,7,6,,,8b,7,6,5,,,8b,7,6,5,,,7b,6,5,4,,,7b,6,5,4,,,6b,5,4,3,,,6b,5,4,3,,,5b,4,3,2,1,8,7,6,5h[8:1],,,,,,,,
{32}2b,3,4,,8b,7,6,,,,,,
{24}2b/5,,,3,4,3,4,,,
{32}6,5,6b,,,,4,5,4b,,,,6,5,6b,,,,4,5,4b,,,,
{16}3<2[4:1]/7,,,,,,,,,,
{32}6b,5,4,,1b,2,3,,7b,6,5,,8b,1,2,,,,,,3/4b,5,6,7,,,,,
{16}2b/8,3/8b,4b/8,,,2b/6b,,,4/6b,4b/7,4/8b,,,
(185){16}2b/6b,,,
(190){16}3-6[95#16:1]/7-2[95#16:1],,,,,,,,3<4[1:1]*<5[1:2]*<6[1:3]*<7[1:4]*<8[1:5]*<1[1:6]*<2b[1:7]/7>8[1:1]*>1[1:2]*>2[1:3]*>3[1:4]*>4[1:5]*>5[1:6]*>6b[1:7],,,,,,,,,,,,,,,,,,,,,,,,,,,,,,,,,,,,,,,,,,,,,,,,,,,,,,,,,,,,,,,,,,,,,,,,,,,,,,,,,,,,,,,,,,,,,,,,,,,,,,,,,,,,,,,,,,,,,,,,
{32}Ch[4:1],,,,,,,,,,,,A7,B7,C,B3,A3,
