&title=Mami Mami Zone
&artist=REDALiCE feat. 野宮あゆみ
&first=0
&des=Noel
&lv_5=13
&inote_5=(173){4},,,,,,
{16},,,1b/8b,,1b/8b,,1b/8b,,2,,3,4,3,,34,,5,,34,,2,,34,,3,4,3,4h[16:3],3h[8:1],,,,3,,2,,18,,,,6,5,6,,6h[8:1]/5h[8:1],,,,4,,56,,7,,56,,6,5,6,5h[16:3],6h[8:1],,,,6,,7,,81,,,,3,4,3,,34,,5,,34,,2,,34,,34,,3,4,3,4,3,,34,,3,,2,,18,,,,6,5,6,,56,,7,,56,,4,,56,,7,,8p5[2:1],,8,,,,,,,,,,,,,,25,,3,4,3,,3,,3>7[4:1],,,,7pp3[2:1],,,,5h[2:1],,,,,,,,,,,,6,,5,,4,,3,,,,E6/B5/B4/E4,,,,7pp6[2:1],,7,,,,2,,3,,4,,5>2[8:1],,,,7bx,,7bx,,7bx,,74,,6,5,6,,6,,6<2[4:1],,,,2qq6[2:1],,,,4h[2:1],,,,,,,,,,,,8,,8,,8h[16:3],,,7h[16:3],,,6,,1h[16:3],,,2h[16:3],,,3,,4<8[4:1]*q8[4:1],,,,,,,,,,8bx,,1bx/7bx,,2bx/6bx,,26,,3,4,3,,3,,3>8[4:1],,,,8-4-8b[2:1],,,,7h[2:1],,,,,,,,,,,,7,,6,,5,,4,,,,E7/E5/B6/B5,,,,4qq4[2:1],,4,,,,5,,6,,7,,8v6[8:1],,,,1bx,,1bx,,1bx,,16,,8,7,8,,8,,8>3[4:1],,,,3<6[4:1],,,,6V84[4:1]*V83[4:1],,,,,,,,,,4x,,3x,,2,,1>4[8:1],,,,7,,8<5[8:1],,,,,,1b>8[4:3],,1b,,,,,,,,,,,,,,,,,,2,,3,,4,,2,,3,,4h[8:3],,,,,,3h[16:3],,,2h[16:3],,,1-5[8:1],,1,,1,,,,,,7,,6,,5,,7,,6,,5h[8:3],,,,,,8>4[2:1],,,,,,8x<6[8:1],,,,,,,,,,2,,3,,4,,2,,3,,4h[8:3],,,,,,5h[16:5],,,,,6h[8:3],,,,,,1x-7-3-5[2:1],,1x,,,,,,,,,,,,,,,,,,6x/3x,,6x/3x,,,,5x-1[8:1]/4x-8[8:1],,,,,,,,,,8b/6b,,,1b/3b,,,5b/4b,,Cf/E1/E2/E3/E4/E5/E6/E7/E8,,,,1b/8b<5[8:1],,,,1bx/8>3[8:1],,,,7bx/8<5[8:1],,,,1bx/8>3[8:1],,,,7bx/8,,,,6V48[2:1],,6,,,,1-3[8:1],,1,,,,,,,,8bx/1>4[8:1],,,,8bx/1<6[8:1],,,,2bx/1>4[8:1],,,,8bx/1,,,,8w4[8:1],,,,8b,,,,1w5[8:1],,,,1b,,,,1bx/8<5[8:1],,,,1bx/8>3[8:1],,,,7bx/8<5[8:1],,,,1bx/8,,,,3V51[2:1],,3,,,,8-6[8:1],,8,,,,,,,,1x/5x,,3,4,3,,6,5,6,,2,4,2,,8<5[8:1],,1>4[8:1],,8b,,1b,,,,,,6bx/5bx,,8bx/4bx,,,,5bx/4>1[8:1],,,,5bx/4<7[8:1],,,,3bx/4>1[8:1],,,,5bx/4,,,,6V84[2:1],,6,,,,3-1[8:1],,3,,,,,,,,1bx/5<8[8:1],,,,4bx/5>2[8:1],,,,6bx/5<8[8:1],,,,4bx/5,,,,1w5[8:1],,,,1b,,,,8w4[8:1],,,,8b,,,,5bx/4>1[8:1],,,,5bx/4<7[8:1],,,,3bx/4>1[8:1],,,,5bx/4,,,,6V84[2:1],,6,,,,3p7[8:1],,3,,,,,,,,6h[16:3],,,5h[16:3],,,4,,3-7[8:1],,,,2b,,,,1-4[8:1],,8-5[8:1],,1b,,8b,,,,5b/4b,,2b/7b,,,,45,,,,4,,,,4,5,4,,,,,,2-5[8:1],,,1,2,,8,,7-4[8:1],,,8,7,,1,,2-5[8:1],,,1,2,,8,,7h[8:1],,6h[8:1],,5h[8:1],,4h[8:1],,3>8[8:1],,3,,5-1[8:1],,5,,4-8[8:1],,4,,6<1[8:1],,6,,4hb[2:1],,,,,,5,,5,,,,6-1[8:1],,6,,4,,4,,3-8[8:1],,3,,6,,6,,7-3[8:1],,7,,2-6[8:1],,2,,8-3[8:1],,8,,1-5b[8:1],,,,,,,,
{12}7x,7x,7x,6x,6x,6x,5x,5x,5x,4x,4x,4x,
{16}3x>6[2:1],,,,,,,,,,5x,,5xqq2[4:3],,5x,,5x,,,,,,,,,,,,,,,,7bh[16:3],,,6h[16:3],,,5,,7bh[16:3],,,6h[16:3],,,5,,7bh[16:3],,,6h[16:3],,,5w1[8:1],,,,Cf,,,,,,7bx/1-4[8:1],,,,3bx/1-6[8:1],,,,7bx/1-4[8:1],,,,3bx/1,,,,3xpp7[2:1],,3x,,,,8-2[8:1],,8,,,,,,,,7bx/1-4[8:1],,,,3bx/1-6[8:1],,,,7bx/1-4[8:1],,,,3bx/1,,,,8w4[8:1],,,,8b,,,,1w5[8:1],,,,1b,,,,6bx/8-3[8:1],,,,2bx/8-5[8:1],,,,6bx/8-3[8:1],,,,2bx/8,,,,1V73[2:1],,1,,,,4-6[8:1],,4,,,,,,,,7h[16:3],,,6h[16:3],,,5,,4,,4,,5,,5,,4b/7b,,5b/2b,,3b/8b,,1b/6b,,,,E3/E7,,E3/E7,,,,7bx/1-5[8:1],,,,3bx/1-6[8:1],,,,7bx/1-4[8:1],,,,3bx/1,,,,3V15[2:1],,3,,,,7q6[8:1],,7,,,,,,,,6bx/8-4[8:1],,,,2bx/8-5[8:1],,,,6bx/8-3[8:1],,,,2bx/8,,,,1-3[8:1]/8-4[8:1],,,,1b/8b,Cf,,,1-5[8:1]/8-6[8:1],,,,1b/8b,Cf,,,7bx/1-4[8:1],,,,3bx/1-6[8:1],,,,7bx/1-4[8:1],,,,3bx/1,,,,4p5[4:1],,4,,,,8p1[4:1],,8,,,,,,,,2h[16:3],,,3h[16:3],,,4,,5,,5,,4,,4,,7-4[8:1],,2-5[8:1],,7b,,2b,,,,8b,,8b,,,,1-5[8:1],,8-4[8:1],,1b,,8b,,,,2b,,2b,,,,2b-6b[8:1],,8b-4b[8:1],,2b,,8b,Cf,,,1b>4q5<8[2:9],,1b,
