&title=IOR
&artist=ariiol
&first=0
&lv_2=5
&des_2=
&inote_2=
(169){4},,{2}5/4,
6,{4}4,6,
{2}4,3,
5,{4}3,5,
{2}3,8,
6,{4}8,6,
{2}8,1,
3,5bV71b[0.1775##1.0651]*V31b[0.1775##1.0651],
,2/8,
{8}7,,,6/1,,,{4}6,
{8}3h[8:1],5,,,{2}7/5,
{8}4,,,6h[4:1]/3h[4:1],,,,6/3,
,,,,{2}3/5,
{8}6,,,7/4,,,{4}7,
{8}2h[8:1],8,,,{2}6/8,
{8}1,,,7h[4:1]/2h[4:1],,,,,,,,,{2}6,
6,4,
4,6,
3,6,
{16}4h[8:3],,,5,,,,,{4}5,5,
3,3,5,3,
{64}5,,,,,,,,,,,3,,,,,,,,,,,,,{8}5,{2}5>5[0.1775##1.0873],
,Cf,
{4},,5,5,
{2}3>8[0.0666##0.5104],{4}7,8,
7,8,4,4,
{2}6<1[0.0666##0.5104],{4}2,1,
{16}2,,,2h[64:13],,,,,{4}8,8,
{2}2>5[0.0666##0.5104],{4}6,{64}5,,,,,,,,,,,,,,,6,
,,,,,,,,,,,,,,,,{4}5,1,1,
{2}7<4[0.0666##0.5104],{4}3,{64}4,,,,,,,,,,,,,,,3,
,,,,,,,,,,,,,,,,{4}4,
E
&lv_5=13+
&des_5=MastimubleP.
&inote_5=
(169){4},{64},,,,,,,,,,,,,,,,8bx/1bx,7bx/2bx,3bx/6bx,4bx/5bx,,,,,,,,,,,,,{8}6,5,
{4}6,{8}6,5,4,3,4,3h[4:1],
,8,7,6,{4}6h[8:1]/4h[8:1],6h[64:7]/4h[64:7],
5h[8:1]/3h[8:1],5h[8:1]/3h[8:1],{8},7,6,3,
{4}4,5/4,{8}3,4,{4}3,
{8}3,4,5,6,5,6h[4:1],,1,
2,3,6,5,{4}6h[8:1]/5h[8:1],4h[8:1]/3h[8:1],
8h[8:1]/7h[8:1],2h[8:1]/1h[8:1],{8},6,5,4,
4/5,6/3,{4}7/2,7b/8b,{64}8,,,,,,,7,,,,,,,,,{8}8-4[0.466##0.1331],
7-4[0.2885##0.1331],8,A4f/A8/A7,,4,4,3-7[0.2663##0.0888],
4,E4/B3/E3/A3f,,6,{4}Cf/E7/B6/E6,{8}2-4[1.1538##0.1775],1-7[0.5991##0.1109],
2-5[1.1317##0.1331],1-6[0.9541##0.1331],{32}2,,,D8f/A8/A7,,,,,,,,,{8}D4f/A3/A4,{64},,,,,,,B7f/B4f,{4},{16},5h[8:1]/6h[8:1],
{64},,,,,,,,,3/4,,,,,,,{4}Cf,{8}2,3,
4,7,6,5b/4b,,4/3,4/3,6/5,
5-2[0.1109##0.2441]/6-1[0.1109##0.2441],E5/E7,,,{4}6b/5b,{8}3,3,
{16}5,,,5<4[0.2663##1.0651],,,{8}5b,,,,,,,{4}5b,
{16}5,4,5,4,5,4,5,4,
5,4,5,4,5,4,5,4,5,3,6,4,5,3,6,4,
5,3,6,4,5,3,6,4,5,3,6,4,5,4,5,3,
6,4,5,4,5,3,6,4,5,4,5,4,5,4,5,4,
{64}5b,,,,,,,,,,,,,5b/3b,,,,,,,,,,,,4b/2b,,,,,,,{16}8,1,8,1,8,1,8,1,
8,1,8,1,8,1,8,1,8b,2,7,1,8b,2,7,1,
8b,2,7,1,8b,2,7,1,8h[16:1],1h[16:1],7h[16:1],1h[16:1],6h[16:1],1h[16:1],5h[16:1],1h[16:1],
8h[16:1],1h[16:1],8h[16:1],2h[16:1],8h[16:1],3h[16:1],8h[16:1],4h[16:1],{4}8<1[8:5],8,
{8},,,,6/4,6,4,6,
{16}5,6,5,6,{32}5,,,6x,,,,,{8}6/5,7,6/5,4,
3,2,{4}1h[8:1],{8}1/8,8,{64}1,,,,,,,8,,,,,,,,,{16}1,
8,1,8,{32}1,,,8,,,,,{8}1/8,2,1/8,7,
{16}8h[64:7]/7h[64:7],,,6h[16:3]/8h[16:3],,,,,{8}7/8,7,8,7,
{16}8,7,8,7,{32}8,,,7x,,,,,{8}7/8,6,7/8,1,
2,3,{4}3h[8:1],{8}3/4,4,{64}3,,,,,,,4,,,,,,,,,{16}3,
4,3,4,{32}3,,,4,,,,,{8}3/4,2,3/4,5,
{16}4h[64:7]/5h[64:7],,,6h[16:3]/4h[16:3],,,,,{8}3/6,5,4,5,
{16}4,3,2,1,{64}8,,,,,,,,,8>4V28[0.1553##1.2648],,,,,,,{8}7,7,6,5,
5,6,{4}7h[8:1],{8}2/7,8,1,8,
{16}1,2,3,4,{8}5,5b,{16}6bh[16:3],,,5bh[16:3],,,{8}4bh[16:3],
{16},3bh[16:3],,,1bx,1bxh[32:3],,,{8}2/8,8,1,8,
{16}1,2,3,4,{64}5,,,,,,,,,5>1V35[0.1553##1.2648],,,,,,,{8}6,6,7,8,
8,7,{4}6h[8:1],{16}3/6,,,,,,,5/4,
5/4,,,,,,,4/3,4/3,,,2/1,,,{8}8/7,
{32}6x,5x,4x,3x,2x,1x,8x,7x,6,5,4,3,2,1b,8b,7b,{2}6b,
3h[2:1],4,
6h[2:1],5,
2h[2:1],1,
7h[2:1],{8}8,8,8,8,
7,7,7,7,8,8,7,7,
8,7,8,7,{2}1h[1:1]/2h[1:1],
,,Cf/B8/B7/B6/B5/B4/B3/B2/B1,
{64}4/6-1[0.3994##0.1997],,,,,,,,,,,5,,,,,{8}6,5,
{64}4/6-1[0.3994##0.1997],,,,,,,,,,,5,,,,,{8}6,5,{64}4/6-1[0.3994##0.1997],,,,,,,,,,,5,,,,,{8}6,5,
{64}4/6-1[0.3994##0.1997],,,,,,,,,,,5,,,,,{8}6,5,{64}5/3-8[0.3994##0.1997],,,,,,,,,,,4,,,,,{8}3,4,
{64}5/3-8[0.3994##0.1997],,,,,,,,,,,4,,,,,{8}3,4,{64}5/3-8[0.3994##0.1997],,,,,,,,,,,4,,,,,{8}3,4,
{64}5/3-8[0.3994##0.1997],,,,,,,,,,,4,,,,,{8}3,4,4h[64:3]/3h[64:3],4h[64:3]/3h[64:3],4h[64:3]/3h[64:3],4h[64:3]/3h[64:3],
6h[64:3]/5h[64:3],6h[64:3]/5h[64:3],6h[64:3]/5h[64:3],6h[64:3]/5h[64:3],4h[64:3]/2h[64:3],4h[64:3]/2h[64:3],4h[64:3]/2h[64:3],4h[64:3]/2h[64:3],
7h[64:3]/5h[64:3],7h[64:3]/5h[64:3],7h[64:3]/5h[64:3],7h[64:3]/5h[64:3],{16}7h[16:1],5h[16:1],7h[16:1],4h[16:1],7h[16:1],3h[16:1],7h[16:1],2h[16:1],
7h[16:1],2h[16:1],6h[16:1],2h[16:1],5h[16:1],2h[16:1],{8}4h[16:1],{2}Cf/B8/B7/B6/B5/B4/B3/B2/B1,
1s5[0.0888##0.355],{8}3h[4:1]/6h[4:1],,,6/3,
{4}4,{8}4,5,5/4,3,2,1,
1/8,7,6,5,{4}5h[64:7]/4h[64:7],5h[64:7]/4h[64:7],
3h[64:7]/4h[64:7],3h[64:7]/4h[64:7],{8}4/2,4,2,4,
{32}2x,1x,8x,7x,6x,5x,4x,3x,2x,1x,8x,7x,6x,5x,4x,3x,{8}5h[4:1]/2h[4:1],,,2/5,
{4}4,{8}4,3,3/4,5,6,7,
7/8,1,2,3,{4}3h[64:7]/4h[64:7],3h[64:7]/4h[64:7],
5h[64:7]/4h[64:7],5h[64:7]/4h[64:7],{8}4/6,4,6,4,
{32}6x,7x,8x,1x,2x,3x,4x,5x,6x,7x,8x,1x,2x,3x,4x,5x,{8}3h[4:1]/6h[4:1],,,6/3,
{4}4,{8}4,5,5/4,3,2,1,
1/8,7,6,5,{4}5h[64:7]/4h[64:7],5h[64:7]/4h[64:7],
3h[64:7]/4h[64:7],3h[64:7]/4h[64:7],{8}4/2,4,2,4,
{32}2x,1x,8x,7x,6x,5x,4x,3x,2x,1x,8x,7x,6x,5x,4x,3x,{4}2bx,{8}5,3,
5,{64}3,,,5,,,,,,,,,,,,,{8}3/5,,6/4,{16},6,5,6,
{8}5/6,6h[4:1]/3h[4:1],,,{4}6/3,7h[4:1]/2h[4:1],
{8},7/2,,8<4z8>4[0.1775##1.2426],,,,,,,,,{4}6/3,
{8}5,5,
4b,5,5,5,{4}4/6,{8}6,6,
4b,6,6,6,{4}3/6,{8}4,4,
5b,4,4,4,{4}5/3,{8}3,3,
5b,3,3,3,{4}7/2,{8}8,8,
1b,8,8,8,{4}1/7,{8}7,7,
1b,7,7,7,{64}8/7,,,,,,,,,,,7/8,,,,,,,,,,,{32}7/8,{64},,,,,,,,1/2,
,,,,,,,,,,2/1,,,,,,,,,,,{32}2/1,{64},,,,,,,,8/7,,,,,,,,,,,6/7,,,,,,,,,,,{32}5/6,{64},,,,,,,,1/2,
,,,,,,,,,,3/2,,,,,,,,,,,{32}4/3,,,,,{2}4b/5b,
E
