&title=Ex-Otogibanashi [Full Ver.|3:37]
&artist=ryo (supercell); かぐや(cv.夏吉ゆうこ); 早見沙織
&first=0
&des_5=seele
&lv_5=14|14.5
&des=seele
&inote_5=(95){4},
{128},,,,,,,,,,
(95.08)
{4}Cf,
{8}E3h[16:1]/B3h[16:1]/E4h[16:1],B7h[16:1]/B6h[16:1]/E7h[16:1],E1h[16:1]/B1h[16:1]/E2h[16:1],E6h[32:4]/B6h[32:6]/B5h[32:7],Ch[64:23]/B2h[32:6]/B3h[32:9],
{32},,,,,,,,,,,,
{8}7b/B3/B2/E3,2b/B6/B7/E7,8b/B4/E4/B3,
{16}1b/E6/B5/B6,1b,
(190)
{24}E1,,B1,,B2,,E3,,E7,,B6,,B5,,E5,,E8,,B8,,B1,,E2,,
{16}6h[16:3],,,7h[16:3],,,{8}8h[16:3],{16},1h[16:3],,,{4}2s6[8:3],,,
{16}28,,7,,2h/6h,,,,
{2}2h[4:1]/5h[4:1],3h[4:1]/6h[4:1],4h[4:1]/7h[4:1],5h[4:1]/8-4-7[2:1],
{8},,,,,,,,,,,,
{2}6h[8:1]/1h[4:1],7h[4:1]/2h[4:1],8h[4:1]/3h[4:1],7h[4:1]/2h[4:1],6h[4:1]/1-5-8-3-7[1:1],,,,
{8}8b-4[8:1]/1,27,18,,
{4}1/4x<7[2:1],1,1,1,1/8^5[2:1],1,1,1,1/4<7[2:1],1,1,1,1,1,
{8}1-5[8:1]/8-4[8:1],27,1b/8b,,
{8}8-4[8:1],8,1-5[8:1],1,2-6[8:1],2,3-7[8:1],3,4-8[8:1],4,5-1[8:1],5,6-2[8:1],7,7,8,
{16}1v4[8:1]/8v5[8:1],27,36,,18,,,,
{16}3,4,3,,6,5,6,,3,4,2,,6,5,7h[4:1],,
{8}2-5[8:1],1,2,,Cf,,,,
{8}1^4[4:1],,6,,,,,,
{8}8^5[4:1],8,3,,,,,
{8}1-5[8:1],5pp7[8:2]*qq3[8:2],
{2},{4},{8},
{8}7-5[4:1],7,5-3[4:1],,,,,,
{8}2h[8:4],,,,4,,,,
{8}8-6[4:1],8,6-4[4:1],,,,,,
{8}1h[4:2],,,,3,,,,
{16}8x,7x,6x-8-2<6[1:1],,
{4}4h[8:1],4h[8:1],3h[8:1],4h[8:1],4h[8:1],4h[8:1],5h[8:1],
{16}1x,2x,3x-1-7>3[1:1],,
{4}5h[8:1],5h[8:1],6h[8:1],5h[8:1],5h[8:1],5-1[8:1],,
{16}2-6[8:4],1,3,2,{8}1,1,8,8,7,,
{16}7-3[8:4],8,6,7,{8}8,8,1,1,2,,
{16}72,8,1,27,
{16}2,6,2,6,3,7,3,7,4,8,4,8,3,7,2,6,1,5,
{32}5x,6x,7x,8x,1x,2x,3x,4x,8w4[16:1],,,,17,,,,8b,Cf,,,
{8}1x-5[8:1],8x-4[8:1],1,8,
{16}1,8,2-5[8:1],7,,,2^5[8:1]*^7[8:1],,,,2-6-2[4:1],,
{16},,
{16}25,,,,5,,8,1,2,3,48,,,,
{32}8x,7x,6x,5x,4x,3x,2x,1x,8x/4-2[8:1],{32},,,,,,,4,,,,7-5[8:1],,,,,,,,7,,,,
{16},,26,3,4,5,62,7,8,1,26,3,4,5,26,3x,4x,5x,26,,
{16}1,8,2-5[8:1],7,,,2^5[8:1]*^7[8:1],,,,2-6-2[4:1],,
{16},,
{16}25,,,,5,,8,1,2,3,4-8^7-5[16:2]*-8^1-3[8:1]/8,,,,4,,,,
{16}1-5[8:1]/8-4[8:1],,,27,18,,,,
{32}8,17,26,35,4b,,2b/6b,,,,,,8b/4b,,,,,,,,
{32}2,3,4-8[8:1],5,6,7,8w4[8:1],1,2,,4,,,,,,,,,,,,,,,,,,
{16}1,8,2-5[8:1],7,,,2^5[8:1]*^7[8:1],,,,2-6-2[4:1],,
{16},,
{16}25,,,,5,,8,1,2,3,48,,,,
{32}8x,7x,6x,5x,4x,3x,2x,1x,8x/4-2[8:1],{32},,,,,,,4,,,,7-5[8:1],,,,,,,,7,,,,,,,,8,,1,,
{16}26,3,4,5,62,7,8,1,26,3,4,5,26,3x,4x,5x,26,,
{16}6-2[8:1],2,1,3,6^1[8:1]*^3[8:1],,,,6,,,,
{16}7/5,,
{16}4-8[8:1],8,2,6,4w8[8:1],,,53,4b,,,,
{48}8/1,7,6,5,4,31,,,,,,,24,,,,,,,,,,,,
{48}1/8,2,3,4,5,68,,,,,,,75,,,,,,,,,,,,
{8}45,3,45,4v2^7[4:1]/5,3,46,,,
{24}8,17,26,35,4b,,2b/6b,,,,,,
{24}1,82,73,64,5b,,7b/3b,,,,,,
{24}1-4[2:1]/8-5[2:1],27,36,4/5,
{1},{24},,
{16}3,3,3,
{12}7,8,1,28,1,2,3/1-7-2-6-3-5[1:1],2,3,41,
{12},,,,,,,,,,,
{16},8b,,,1b/7b,,,2b/6b,,,E7h[32:1]/B7h[32:1]/B6h[32:1],,,E3h[32:1]/B2h[32:1]/B3h[32:1],,,,
{8}A8/A1/D8/E1/D2/A7/E8/B8/B1/E2/A2/E7/B6/B5/E5/B4/B3/E3/B7/Cf/B2,
{8},,,7x-2-4[2:1]/1x-5[2:1],,,E2,,,,,,,
{8}1x-7-4[2:1],,B2/E3,,,,,,
{8}8x-4[2:1]/7x-2^3[2:1],,,,,,,,,
{16}A1,,E2,,E3,,,,,,,,,,
{8}7x-5^4[2:1]/1x-3[2:1],,,,,,,,8x-2-6[2:1]/6xqq5[2:1],,,,,,,,,,8x^5[4:1]/1x-4pp3[2:1],
{8},,,,,,
{16}A7,E8,B8,B1,E2,A2,,,
{8}36,
{16}8x,7x,6x-8-2<6[1:1],,
{4}4h[8:1],4h[8:1],3h[8:1],4h[8:1],4h[8:1],4h[8:1],5h[8:1]/3>7-1-3[1:1],5h[8:1],6h[8:1],6h[8:1],6h[8:1],6h[8:1],7h[8:4],4,4,
{16}7-3[8:5],8,6,7,{8}8,8,1,1,2,,
{16}2-6[8:5],1,3,2,{8}1,1,8,8,7,,
{16}1-5>5[2:1]*-5<5[2:1],8,2,7,1,,,,,,,,,,
{16}6,5,6,,3,4,3,,6,5,7,,3,4,2,,,,
{8}E8,E7,E6,E5,
{16}3b,4,3,4,2,6,2,6,8,7,8,7,1,5,1,5,2,4,2,4,3,5,3,5,4,6,4,6,5,7,5,7,
2,8,2,8,2,6,2,6,2,4,2,4,2,6,2,6,2,5,3,6,4,7,4,7,2,5,2,5,4,6,3,5,
2,4,2,4,1,4,1,5,2,5,2,7,5,7,5,8,3,8,3,1,3,8,4,7,5,6,4,7,3,8,2,
1,3,1,3,7,2,7,2,6,8,6,8,7,2,7,2,8,1,8,1,7,2,6,3,5,4,6,3bx,7,2bx,8,1bx,,
{16}15,2,3,4,51,6,7,8,15,2,3,4,51,6,7,8,15,2,3,4,51,6,7,8,15,2,3,4,51,,,,
{16}48,3,2,1,84,7,6,5,48,3,2,1,84,7,6,5,48,3,2,1,84,7,6,5,48,3,2,1,84,,,,
{16}15,2,3,4,51,6,7,8,15,2,3,4,51,6,7,8,15,2,3,4,51,6,7,8,15,2,3,4,51,,,,
{16}48,3,2,1,84,7,6,5,48,3,2,1,84,7,6,5,48,3,2,1,84,7,6,5,4bx/8bx,,3bx/7bx,,2bx/6bx,,1-4-7-2[4:7],,,,,,
{4}5,5,6,6,5,5,6,,
{8}7-4[8:1],8,7,2-5[8:1],1,2,
{8}6,5,4,3,,36,36,45,
{8},,4/5h[16:6],4,4,4,6/5h[16:6],6,6,6,5h[8:1]/4,4,5h[8:1]/6,6,6,45,56,,
{8}5/4h[16:6],5,5,5,3/4h[16:6],3,3,3,4h[8:1]/5,5,4h[8:1]/3,3,3,54,43,,
{16},2,2,2,5,6,7,8,1,3,3,3,5,6,7,8,1,4,4,4,5,6,7,8,1,2,3,4,51,,,,
{16}7,7,7,4,3,2,1,8,6,6,6,4,3,2,1,8,5,5,5,4,3,2,1,8,7,6,5,48,,,,,
{16}6,5,6h[16:1],,3,4,3h[16:1],,6,5,7h[16:1],,3,4,2h[16:1],,6,5,8h[16:1],,3,4,1h[16:6],,,,7b,6,5,,,,
{16}4,5,4,5,3,6,3,6,2,7,2,7,1-5b[8:1],8,1,8,1b,,,,
{8}2-5[8:1],1,2,,Cf,,,,
{8}1^4[4:1],,6,,,,,,
{8}8^5[4:1],8,3,,,,,
{8}1-5[8:1],5pp7[4:1]*qq3[4:1],
{2},{4},{8},
{8}7-5[4:1],7,5-3[4:1],,,,,,
{8}1h[2:1],,,,3,,,,
{8}8-6[4:1],8,6-4[4:1],,,,,,
{8}1h[2:1],,,,3,,,,
{16}8x,7x,6x-8-2<6[1:1],,
{4}4h[8:1],4h[8:1],3h[8:1],4h[8:1],4h[8:1],4h[8:1],5h[8:1],
{16}1x,2x,3x-1-7>3b[1:1],,
{4}5hbx[8:1],5hbx[8:1],6hbx[8:1],5hbx[8:1],5hbx[8:1],5-1[8:1],,
{16}2-6[8:4],1,3,2,{8}1,1,8,8,7,,
{16}7-3b[8:4],8,6,7,{8}8,8,1,1,2,,
{16}72,8,1,27,
{16}2,6,2,6,3,7,3,7,4,8,4,8,3,7,2,6,1,5,
{32}5x,6x,7x,8x,1x,2x,3x,4x,8w4[16:1],,,,17,,,,8b,Cf,,,
{8}1x-5[8:1],8x-4[8:1],1,8,
{16}2-6[8:1],6,5,7,2^5[8:1]*^7[8:1],,,,2,,,,
{16}3/1,,
{16}8-4[8:1],4,6,2,8w4[8:1],,,17,8b,,,,,,
{48}4/5h[48:5],3,2,1,8,7,,,,,,,{8}7,68,7-2b[16:2]*v4b[8:1],,7,,
{8}1xq5[8:1]/5xq1[8:1],,1<5[8:1]/5>1[8:1],,1xq5[8:1]/5xq1[8:1],,,,
{16}6-2[8:1],2,1,3,6^1[8:1]*^3[8:1],,,,,,A3/A1,,
{16}7/5,,
{16}4-8[8:1],8,2,6,4w8[8:1],,,53,4b,,,,26,,
{8}3/5-1^2-4[8:1]*-1^8-6[8:1],{8},5,,1-5[8:1]/2-6[8:1],38,12,,
{32}8,17,26,35,4b,,2b/6b,,,,,,
{8}1xq5[8:1]/5xq1[8:1],,1<5[8:1]/5>1[8:1],,15,,,
{16}2-6[8:1],6,5,7,2^5[8:1]*^7[8:1],,,,2,,,,
{16}3/1,,
{16}8-4[8:1],4,6,2,8w4[8:1],,,17,8b,,,,26,,35,,,,
{48}4/5h[48:5],3,2,1,8,7,,,,,,,{8}7,68,7-2b[16:2]*v4b[8:1],,7,,
{8}1xq5[8:1]/5xq1[8:1],,1<5[8:1]/5>1[8:1],,1xq5[8:1]/5xq1[8:1],,,,
{16}6-2[8:1],2,1,3,6^1[8:1]*^3[8:1],,,,6,,,,
{16}7/5,,
{16}4-8[8:1],8,2,6,4w8[8:1],,,53,4b,,,,17,,26,,,,
{48}8/1,7,6,5,4,31,,,,,,,24,,,,,,,,,,,,
{48}1/8,2,3,4,5,68,,,,,,,75,,,,,,,,,,,,
{8}45,3,45,4v2^7[4:1]/5,3,46,,,
{24}8,17,26,35,4b,,2b/6b,,,,,,
{24}1,82,73,64,5b,,7b/3b,,,,,,
{24}1-4>5[4:3]/8-5<4[4:3],27,36,4/5,,,,,,,,,,,,,,,,,,,,,,,,,,,
{16}1b/4,2,3,4,5/8b,7,6,5,1b/4,2,3,4,5/8b,7,6,5,
{16}1b/4,2,3,4,5/8b,1,2,3,1b/4,2,3,4,5/8b,1,2,3,5/8b,1,2,3,4,,,,
{16}8b/5,7,6,5,4/1b,2,3,4,8b/5,7,6,5,4/1b,2,3,4,
{16}8b/5,7,6,5,4/1b,8,7,6,8b/5,7,6,5,4/1b,8,7,6,4/1b,,,,
{16}5qq8[2:1]*pp2[2:1],46,37,,5,,,,,,,,,,,,
{8}5,5,4h[8:2]/6h[8:2],,,5,53,,,
{16}2,3,4,,,,,,7,6,5,,,,
{16}1x/8x,1x/8x,1x/8x,2^4[16:1]/7^5[16:1],,,,,,,,,
{16}4,3,2,5,6,7,3,2,1,6,7,8,4,3,2,5,6,7,3,2,1,6,7,8,1,2,3,4,5h[16:2],,,,
{16}8,7,6,5,1,8,7,6,2,1,8,7,3,2,1,8,4,3,2,1,8,7,6,5,4,,,,
{16}2x/7x,2x/7x,2x/7x,2x/7x,2x/7x,2x/7x,2x/7x,,
{16}1/8b,7,6,5,2/8b,7,6,5,3/8b,7,6,5,4/8b,7,6,5,
{16}8/1b,2,3,4,7/1b,2,3,4,6/1b,2,3,4,5/1b,2,3,4,
{32}8b,7,6,5,4,3,2,1,8b,7,6,5,4,3,2,1,8b,7,6,5,4,3,2,1,8b,7,6,5,4,3,2,1,8b,7,6,5,4,3,2,1,
{4}8/4,,,,
{8},{4}8,7,
{128}6^7^8^1^2^3^4^5^6[10.602#258:81],
(190)
{4},,,,,{64},,,,,,,,,,,,,,,,
{4}4,{64},,,,5,,,,,,,,,,,,,,,,,,,6^8^2^4^6[20.6#258:160]*^8^2^4^6[20.6#512:317],
(190){4},,,,,,{32},2,,,,,,,,,,,,,C,,,,,,,,,,,{4}6^7^1^3^5^6b[950#8:227],
E
