&title=La vaguelette
&artist=HOYO-MiX
&first=0
&des=千原葵
&lv_5=13+
&inote_5=(110)
{8},,,5p5-3[4:12],,,,,,,,,,,,,,,,8q1[4:4],,,,,,,,,,,,2b/6b,,
{8},,2x,,2,,28,,2^5[8:1],{24}7,1,7,2x,,,
{8},7,,71,,7^4[8:1],{24}2,8,2,7x,,,
{8},3,,35,,3^8[8:1],{24}6,4,6,3x,,,
{8},6,,64,,6^1[8:1],{24}3,5,3,6x,,,
{8},4,,46,,4V28[8:1],{24}7,5,7,4x,,,
{8},5,,5V71[8:1]/3,{24}2,4,2,5x,,,Cf,,,
{8}7,,7,,73,,4,,2xV86[4:2]/4,,B4,,B4,,B4,,
{8}3,,3,,15,,8,,1xq1[4:2]/7,,E7,,E6,,E5,,
{8}6,,6,,62,,1,,3xV57[4:2]/1,,E1,,B1,,E2,,
{8}Ch[8:12]/B6,,E5,,E6,,E7,,E8,,E1,,
{8}5x,7/3x,2x/6,8/4x,2b/6xV42[4:1],
{8}8,6,1h[4:1],,5,3,8,
{8}5xV31[4:1],7,5,8h[4:1],,4,2,7,
{8}4x>8[4:1],6,4,7h[4:1],,3,1,6,
{8}8x<4[4:1],2,8,3h[4:1],,7,5,2,
{8}3x^2^1^8^7[4:1],5,3,6h[4:1],,2,8,5,
{8}7x^6^5^4^3[4:1],1,7,2h[4:1],,6,4,1,
{8}73,2,1,48,7,6,15,3,2hx[4:2],,,,
{8},,,,5,6,7,6,7,8h[64:1],7,8,1,8,1h[64:1],2,1,2h[64:1],3,1,2h[64:1],8,1,2,1,2h[64:1],3,2,
{16}5,4,5,4,5,4,5,4,
{32}2,3,4,5,6,7,8,1,2,3,4,5,6,7,8,1,2xbv5v8[4:4]/6h[8:3],,,,
{8},,,4h[8:3],,,,5h[8:3],,,,6b/2b,4x,1b/5b,8x,3xbv8v5[4:4]b/7h[8:3],,
{8},,1h[8:3],,,,8h[8:3],,,,7x/3x,1,4x/8x,5,2xV86<4[4:6]/6h[4:8],,,,,,,,,
{8},,,,,,,,5,36,4,52,3,16,7,
{16}1,8,1,8,1,8,1,8,
{32}1,2,3,8,7,6,2,3,4,7,6,5,1,2,3,4b/8b,,,,,
{24}5x-7[20:1],4,6,5,,,1b,{132},,,,,,,,,,,{24}2x,1,2,8,1,8,1x-7[16:1],,,3,,,1b/5b,,,
{24}4x-2[20:1],5,3,4,,,8b,{132},,,,,,,,,,,{24}7x,8,7,1,8,1,8x-2[16:1],,,6,,,8b/4b,,,
{24}7x-1[20:1],8,7,8,,,4b,{132},,,,,,,,,,,{24}6x,4,5,3,4,2,3x-1[16:1],,,6,,,3b/7b,,,
{24}6x-4[20:1],5,6,5,,,1b,{132},,,,,,,,,,,{24}7x,1,8,2,1,3,2x-4[16:1],,,7,,,2b/6b,,,
{24}6x-3[20:1],7,8,1,,,4b/6b,{132},,,,,,,,,,,{24}8x,8,8,2,2,2,3x-6[16:1],,,8,,,3b/7b,,,
{24}7x-2[20:1],6,5,4,,,1b/7b,{132},,,,,,,,,,,{24}5x,1,6,2,7,3,8x-4[16:1],,,2,,,8b/4b,,,
{24}5x-8[20:1],5,5,5,,,2b,{132},,,,,,,,,,,{24}4x,8,3,7,2,6,1x-5[16:1],,,7,,,1b/5b,,,
{24}3x-6[20:1],3,3,3,,,8b,{132},,,,,,,,,,,{12}84,73,26,73,8/4h[12:1],1,Cf,
{24},,,,,,,2pp6[8:2]b/6pp2[8:2],,,,,,,,,,,,,,,,,
{24},1x-5[20:1]/5-1[20:1],26,37,84,,,5b/1b,{132},,,,,,,,,,,{24}6x,3,7,4,6,3,7x-3[16:1],,,2,,,4b/7b,,,
{24}8x-4[20:1]/4-8[20:1],73,62,15,,,4b/8b,{132},,,,,,,,,,,{24}3x,6,2,5,3,6,2x-6[16:1],,,7,,,8b/2b,,,
{24}5x-1[20:1]/1-5[20:1],84,73,26,,,1b/5b,{132},,,,,,,,,,,{24}3x,8,4,1,3,8,4x-8[16:1],,,7,,,6b/4b,,,
{24}7x-3[20:1]/3-7[20:1],62,51,48,,,3b/7b,{132},,,,,,,,,,,{24}4x,1,5,2,4,1,5x-1[16:1],,,7,,,3b/5b,,,
{24}2x-6[20:1]/6-2[20:1],37,48,51,,,6b/2b,{132},,,,,,,,,,,{24}6x,1,5,8,6,1,5x-1[16:1],,,2,,,5b/3b,,,
{24}]8x-4[20:1]/4-8[20:1],73,62,15,,,4b/8b,{132},,,,,,,,,,,{24}1x,5,2,6,3,7,4x,8,3,7,2,5qq6[4:2]b,1xqq2[4:2],,,
{8},,,,,,,1x/6,7,8,8/3x,2,1,6xpp2[4:3]/3s7[8:3],54,6/3x,,,,,,,
{8},3x/5,3,4,3,6x/4,6,5,6,2x/8,2,1,2h[8:5],,,
{8},,6x,1,8,1,7/3x,5,4,5,4/8x,7,3x,6,{32}1x,2,3h[32:30],,
{8},,,,,,,5qq5pp5[4:7],,,,,,,,,,,,,,,
{8},,,,,,,,,,8-4^6[4:4]*-4^2[4:4],,,,,,,,,,,,Cf/D1/E1/E5/B5/B4/B6/E7/B3/E3,,,,E
