&title=ちっちゃな私
&artist=マサラダ
&first=3.52
&lv_5=13 +
&des_5=@Popcorn
&inote_5=
(143){4}3bh[4:1],2h[4:1],1<5[16:3],{8}4,3,
{4}2h[4:1],1h[4:1],8<4[16:3],{8}3,2,
{4}1h[4:1],8h[4:1],7<3[16:3],{8}8x,8x,
{4}7bpp8-5b[8:3],{8},,,,3,2,
{4}1h[2:1],7h[4:1],B8f,{8}6x,7x,
{4}8xh[2:1],2h[4:1],B1f,{8}E6,E5,
{4}E4,{8}E3,E2,E1,E8,E7,E6,
{4}4bqq6b[8:3],,,Ch[64:1],
3x/5xh[4:1],{8}2h[8:1],4h[8:1],3,5h[8:1],4,3,
5bh[4:3]/2bh[4:1],{16},,,,D4,B3,{2}B2,
{4}3<6[4:1],6qq3[8:3],{8}7,8,8,1,
1bxh[2:1],{16},,,,D3,E4,{2}E5,
{4}4h[8:1]/5h[8:1],5h[8:1]/4h[8:1],3h[8:1]/6h[8:1],{8}3/6,5/4,
4/5bpp5b[4:1],{16},,,,B4,B3,{4}B2,8/1x,
4-8[8:1]/2-4[8:1],4/2,{8}7x-4[8:1],4-8[8:1],1,2,
2bq4[16:5],{16},,,,E6,E7,{4}E8,{8}2/7h[8:1],2,
6h[8:1]/1-5-3[4:1],1,{4}5xh[8:1],{8},,2/7h[8:1],2,
6h[8:1]/1-5-3b[4:1],1,{4}5bxh[8:1],,3>1[8:1]`6<8[8:1],
,4b>1b[8:1]`5b<8b[8:1],,4xw8[8:1],
,5bw1b[8:1],,5x/2x>6[4:1],
6<2[4:1],2>6[4:1],6<2[4:1],2x-4-8[4:1]*-4-8[4:1],
,,1b/7b,{32}8x-3[8:1],E8,B7,B6,{8}E6,
{4}8<4[8:1],8/3x-7[8:1],3/5x-2[8:1]*-8[8:1],5bx,
{12}3b/7b,,,,,B4,{96},,,{32}B5,,,,,,,,,,,,,,,{8}5x-1[8:1],
4,3<6[8:1],8x,{4}7v4[8:1],7/8>5[16:3],
8b/1bx,7x-2[8:1],E7f/A7/A6,3bx-6b[8:1],
A2/A3/E3fh[48:1],5x/1xh[8:1],{8}6,8/7p1[4:1],1,1,
{4}8x-4[8:1],8>3[8:1],8<5[8:1],8,
{8}1x-5[8:1],8,7>2[8:1],4x,{4}3v8[8:1],3/4b<1b[16:3],
4b,5>2[8:1],A5f/D6/D5,1bx<6b[0.4196##0.2098],
D1/D2/A1fh[48:1],3xh[4:1],{32}7x,8x,1x,2x,3x,4x,5x,6x,7x,8x,1x,2x,3xq5[2:1],4x,5x,6x,
{4}7bxq6b[8:3],,,C,
1bx>3[8:1]/5bx<7[8:1],1/5-1[8:1],5-8[8:1],{8}5x,3,
{4}3-8[8:1],3/4-7[8:1],4/3,{8}1,1,
{4}2b-6[8:1],2/7-3[8:1],7,{8}2x/6x,3/7,
{1}8bqq8[4:1]/4bqq4b[8:3],
{4}5<7[8:1]/2>5[8:1],2/5-1[8:1],5x/8x,{8}6,7,
{4}3>8[8:1]/8<6[8:1],3/8-4[8:1],8x/5x,{8}8,7,
{4}6<1[8:1]/1>3[8:1],6/1-5[8:1],1x/4x-8[8:1],{8}4,6,
{4}5h[8:1],E8/B8/E7/B7/B6,{2}E3/B3/E4/B4/B2,
{8}2-5[8:1],5-1[8:1],,8x,7,6h[4:1],,1,
2qq4[8:3],{16},,,,E5,E6,{2}E7,
{8}7v4[8:1],7xh[8:1],,,3v8[8:1],3xh[8:1],,,6qq8[8:3],
{16},,,,E4,E3,{2}E2,
{4}4-8[8:1],6,{8}7h[8:1],6h[8:1],5,4>1[8:1],
{16}8h[2:1],,,,,E8,E7,E6,{2}E5,
{8}1,2,3,4,5,6,7,8,
1,{16},,,,C,C,{4}C,6bxh[4:1]/5bxh[4:1],
{32}E5f/E7f,B4/B7,B3/B8,E3/E1,,,,,{4}7bxh[4:1]/6bxh[4:1],{32}E6f/E8f,B5/B8,B4/B1,E4/E2,,,,,{4}3bxh[4:1],
{8}2x,1x,8x,7x,6x,5x,4x>2[8:1],6x,
{4}5x<7[8:1],5bx-1b[8:1]/4bx-2b[8:1],5bx-7b[8:1]/4bx-8b[8:1],4bx/5bx,
{8}1bx-5b[8:1],7bx-4b[8:1],1bx,7bx,{4}2bx-6b[8:1],2bxw6b[8:1],
2bx,4x/5x-2[8:1],6x/5x-7[8:1],5x/4x-2[8:1],
5x/4x-7[8:1],3x/4x-1[8:1],4x/5x-8[8:1],5x/4x,
{6}3>6[2:1],4b,5b,6b<3b[1:1],5b,4b,
{1}Cfh[1:1],
{4}B7/B6/B2/B3,{8}7x>1[8:1],7,2v5[8:1],2,7-3[8:1],7,
{4}4bx>8[16:3],{24}E4,E3,E2,E1,,,{4}6bx<2b[16:3],{24}E7,E8,E1,E2,,,{4}E4f/B4,
8xh[4:1],{8}1,1/2q8[4:1],8,8,
{4}1x-5[8:1],1x<6[8:1],1x>4[8:1],1x,
{8}7bv4[8:1],4,2<8[8:1],2,6-3[8:1],6,{4}1w5[8:1],
1b,7p3[8:1],E8f/A7/A8,2bxq6b[8:1],
A1/A2/E2fh[48:1],7xh[4:1],{32}2x,1x,8x,7x,6x,5x,4x,3x,2x,1x,8x,7x,6xp4[2:1],5x,4x,3x,
{1}2bxp3b[8:3],
{4}6b/2bh[4:1],{8}7,8,{16}1-5[8:1],6,{8}6,1,A8/D8/A7,
,4,8<5[8:1],3,{16}8/2,1,{8}1h[4:1],3,7h[8:1],
{4}3,{16}5-1[8:1],4,{8}4,{4}5,{8}3h[4:1],E1/B1/B8,
5h[4:1],B8/E8/B7,3h[4:1],B1/B8/E1,5h[4:1],B2/E3/B3,{4}1x,
2-5[8:1]/6v1[8:1],6b/2b,{16}4x,4,{8}8-6-4[8:1],{16}3,3,{8}8,
2,1,1p6[8:3]*q4[8:3],2/8,,,,,B2,
B4,B8,E6,{2}E6fh[8:3]/Cfh[8:5]/E2fh[8:7],
{8},,,,,5bx/4x,{4}2b/7,
{16}7bx,5,6,4,5,3,{8}4h[8:1],{16}2,4,3,5,4,6,5,7,
{8}8,{24}2,1,2,{8}1w5[8:1],2x/8x,{4}1b/Cf,{8}8x,7-4[8:1],
1,B2,{4}E4,{8}5/3,6x/B4,{4}7h[4:1]/E3,
{8},1/E7,2/B5,3/E7,{4}4bx/B5,3bv8[8:1]/7b-4[8:1],
7bx/3bx/Cf,{8}1x,2,{4}3/5h[8:1],{8}2>8[16:3],6,
{4}6bh[16:3],{16}1x,2x,3x,4x,{2}5bx/E8f/B8/B7,
{8}1h[8:1],8h[8:1],3h[8:1],4h[8:1],2h[8:1],1h[8:1],8h[8:1],{32}A3,D4,A4,D5,
A5,D6,A6,D7,A7,D8,A8,D1,A1,A2f/E2/B2,{1},{4},,{16},,,{2}7<5[8:1],
{4}2>4[8:1],6,
{1}5h[1:1],
{2}2x>4b[8:1],{4}7x<5b[8:1],3x,
{1}4xh[1:1],
{2}8qq8[4:3],{8}E4,E3,{4}E2,
{1}1h[1:1],
{2}8xqq8b[4:3],{8}E4/D4,E3/B2,{4}B1/A1,
{1}1xh[1:1],
{2}6h[2:1],3,
3xh[2:1],6x,
{8}7h[2:1],,,2,{2}2,
{8}2xh[2:1],,,7x,{2}7x,
{8}8h[2:1],,,1,{2}1,
{8}1bh[1:1],,,8,{2}8h[2:1],
{4},,,E7/B6,
{2}B2/E3,{4}8/1,2/7,
{8}3/6,,,B5,{2}B4,
{16}3,3,{8}5h[8:1],4,{16}6,5,7,4,8,2,7,5,6,4,
{8}B2/E3,B8/E1,E7/B6,E5/B4,1x/8x,3x/5x,2x/8x,5x/6x,
{4}8x/1bx-5[8:1],1/6-1[8:1],6/5>2[8:1],5/7-3[8:1],
7b/1-5[8:1],1b-6[8:1]*>4[8:1],1b,7b-3b[8:1],
7b/2b-6b[8:1],2b/Cf,{8}8h[8:1],5h[8:1],7h[8:1],4h[8:1],
{4}6<2[4:1],2>6[4:1],{2}6,
{32}1bx-5b[8:1]/8x-4[8:1],7x/2x,3x/6x,5x/4x,,,,,{4}1b-3b[8:1]/8b-6[8:1],8b/1b,4bx>1[8:1],
6/4b<7[8:1],2/4bp8[8:1],6/4bq8[8:1],4b/2b,
{8}2x/6x,4/3,2,1/8,7,5/6,3>8[8:1]/4<7[8:1],4/3,
{2}D4f/A3/A4,{32}2bx,3x,4x,5x,6x,7x,8x,1x,2x/6bx,5x,4x,3x,2x,1x,8x,7x,
{4}6bx/2bx-7[8:1]*-5[8:1],2>8[4:1],{8}2,1,1,2,
{4}2-6[8:1],2b/7-3[8:1],7b/2b-6[8:1],2bv5[8:1]/8bv5[8:1],
2b>5b[8:1]/8b<5b[8:1],8b/2b,{8}7bx-3[8:1],8,3x/7x,1,
{4}2v5[8:1],2/6<8[8:1],6/3-7[8:1],3/5-8[8:1]*-2[8:1],
5bx,3b/7b,{8}5h[8:1],3h[8:1],1h[8:1],7h[8:1],
{4}5bx>5[2:1],Cf,5bx>5b[2:1],Cf,
{2}4bx,{32}3x,4x,5x,6x,7x,8x,1x,2x,3x,4x,5x,6x,7x,8x,1x,2x,
{4}4xq2[8:3]/3bxq1b[8:3],,,C,
4/3h[2:1],{8}4,4,{4}4h[2:1],{8}5,5,
{4}5h[2:1],{8}6,6,{4}6h[2:1],{8}3,3,
{4}3h[2:1],{8}E4,E5,{4}E6,{8}E6,E5,
{4}E4,{8}E3,C,{4}E7,{8}1h[4:1],8,
{4}7,{8}2h[4:1],8,{4}7,{8}2>4[8:1],8,
{4}7,{8}7<5[8:1],1,{4}2,{8}3>1[8:1],5,
{4}6,{8}6>4[8:1],1,{4}2,{8}E2,E1,
{4}E8,5q4[4:1],,,2h[2:1],
8h[4:1],B1,{8}3,4,
{4}5h[2:1],7h[4:1],B6,{8}7,8,
{4}1h[2:1]
||这是一个标记~
,{8}B1,C,{4}B5,{8}1-5[8:1],8,
{4}7/1,{8}1x-4[8:1]/8x-5[8:1],1x/8x,{4}8x/1x,6h[4:1],
1h[4:1],7<3[16:3],1,{8}8,8,
{4}8>4[16:3],{8}4,5,{4}6h[8:1],{8}6,7,
{4}8q5[4:1],5<1[4:1],1>5[4:1],5<1[4:1],
1w5[4:1],,,6bx/4bx,
{1}7pp7p5b[1:1],
E
&lv_6=1
&des_6=
&inote_6=
(143){4},
E
