&title=輪廻玲々
&artist=suzu
&first=0
&des_5=TraNsfor-Mai "CRYSTAL"
&lv_5=14
&des=TraNsfor-Mai "CRYSTAL"
&inote_5=(188){4},{16},,,,,,,,,,,,3h[8:1],
,,6,{8}4,5-1b[8:1],5,5,,,7<2[4:27],
,,1h[8:3],,,,,1,
,,8h[8:3],,,,,8,
,,7h[8:3],,,,,7,
,,6h[8:3],,,,,{1}6pp8[2:1],
1qq7[2:1],
8-4[2:1],
{16}E5,E6,E7,E8,E1,E2,E3,E4,D5,D6,D7,D8,D1,D2,D3,D4,
{8}D5/1>5[4:1],,,7-3[8:1],,,{4}1-5b[8:1],
{8}1b/8<4[4:1],,,2-6[8:1],,,{4}7-3b[8:1],
{8}7b/8>4[4:1],,,5-1[8:1],,,{4}2-6b[8:1],
{8}2b/1<5[4:1],,,3-7[8:1],,,{4}8w4b[8:1],
{8}8b,,,A6/B6/B2/A2/Cf,,,{4}5h[4:1],
{16}3,4,3,4,{8}3h[8:1],{16}6,4,6,4,{8}6h[8:1],{16}3,5,3,5,
3,4,3,4,3,5,3,5,2,6,2,6,1,7,1,7,
{4}8>3[8:1],{8}7,7-3[8:1],,8,{4}8-4b[8:1],
{8}8,7,6,5,4,3-7b[8:1],,3,
,8,7,6,5,2-6[8:1]/4-7[8:1],,2/4,
,1,2,3,4,5w1b[8:1],,A5f/D6/D5,
,,,,,,,,6h[4:1],
2,3,4,5,6-2b[8:1],,6,
,1h[8:1]/3h[8:1],,4h[8:1]/6h[8:1],,7-3[8:1]/5-2[8:1],,7/5,
,8,7,6,5,4w8b[8:1],,A4f/D4/D5,
,,,,,,,,{4}3/7-5[8:1],
7/1-5[8:1],1/8-4[8:1],{8}2/8,2pp2[4:1],
,,{4}7-3[8:1],7/1-5[8:1],{8}8/1,8qq8[4:1],
,,{4}2-4[8:1],2/1-5[8:1],{8}1/8,8V64[4:1],
,,{4}2-6[8:1],{8}2/8,8w4[8:1],{24},,,A8/D8/D1,B8,Cf,
{4}B4,{8}4,3,2,1w5[8:1],,D1/D2/A1f,
,,8,7,6,5w1b[8:1],,Cf,
{16},,,,,,,,,,,,,,,,D8,
D7,D6,D5,E8,E7,E6,E5,D2,D3,D4,D5,E2,E3,E4,E5,
{4}8b-4[4:3],{16}3,5,3,5,2,6,2,6,1,7,{8}8,
{16},,,,4,6,4,6,3,5,3,5,2-6[8:1],4,2,4,
{4}2,{8}E8/E1/B8,E5/E4/B4,,,2,2,
{16}7,6,5,4,2,3,4,5,8,7,6,5,1,2,3,4,
{4}1b-5[4:3],{16}6,4,6,4,7,3,7,3,8,2,{8}1,
{16},,,,6,4,6,4,7,5,7,5,8-4[8:1],6,8,6,
{4}8,{8}E2/E3/B2,E7/E6/B6,,,8,8,
{16}3,2,1,8,5,6,7,8,4,3,2,1,6,7,8,1,
{4}5b-1[4:3],{16}2,8,2,8,3,7,3,7,4,6,{8}5,
{16},,,,2,6,2,6,1,5,1,5,8-4[8:1],4,8,4,
{4}8,{8}E7/E6/B6,E2/E3/B2,,,5,5,
{16}2,3,4,5,1,2,3,4,7bx,6bx,5bx,4bx,8bx,7bx,6bx,5bx,
{4}Cf,{8}3h[4:1],4,6h[4:1],5,3h[4:1],4,
7h[4:1],5,2h[4:1],4,7h[4:1],5,2h[4:1],4,
8,8,3,3,6,6,7/2,6/3,
4-1[4:1]/5-8[4:1],{16},,,,,,,,2/7,3/6,{8}4/5,C/B2/B7,
6x/3x>6[4:15],,,,,,,5h[8:5],
,,,,,,,4h[8:5],
,,,,,,,4,
,,{4}3,2,1,
{8}8>5[8:7],,,6,,6,,5<2[1:1],
,,{4}4,{8}3,3,,2>7[1:1],
,,{4}1,{8}8,8,,7q3q7[8:7],
,,{4}6,5,4,
{8}3V17[2:1],,,5,,3,,1V35[2:1],
,,,,6,7,8,1q5[8:3]*p5[8:3],
,,,,,,4-1-6[2:1],4,
,,{4}6-3[4:1],3-8[4:1],6-2b[8:1],
{8}6b,,,7-4[8:1],,7/1w5b[8:1],,1,
,,{4}7h[4:1],{8}1,2/4,3,4,
5,{24}2b/1h[8:1],3,4,{8}5,{24}7b/8h[8:1],6,5,{8}4,{24}2b/1h[8:1],3,4,{8}5,{24}7b/8h[8:1],6,5,
{4}4h[4:1],{8}1,1,{16}3,3,,7/5,,,1,8,
{1}7b-4q1-6b[2:3]/2b-5p8-3b[2:3],
{16},,,,,,,,,,,,,,,,4,
5,4,5,3,6,3,6,2,7,2,7,1,8,1,8,
{24}2b,3,4,5,6,7,8,1,2,3/6b,5,4,3,2,1,8,7,6,{4}1-4[8:1]/5-8[8:1],
{8}1/5/E1/E5`Cf,,,7/2-4[8:1],,6-3[8:1]/2-7[8:1],,2/6,
,1,{4}1-5[8:1],{16}1/6,7,8-4[8:1],1,2,3,{8}4/8/Cf,
,E2/B1/B7/E7,{4}E3/B3/B5/E6,{16}1,2,{8}3-7[8:1],8,3/8>8[2:1],
{16},,D1,D2,D3,D4,D5,D6,2/D7,3/D8,4,5,6,7,8,1,
{8}2bh[4:1]/6bh[4:1],,,8-6[8:1],,4-1[8:1]/8-5[8:1],,4/8,
,3,{4}3-1[8:1],3/6-2[8:1],{8}6/8,8>4[4:1],
,7/8,{4}7-3[8:1],{8}7/5,5w1b[8:1],,A5f/D6/D5,
,,{4}B7/C/B3,{8}1,2,{4}3-6[8:1]/7-2[8:1],
{8}3/7/E7/E3`Cf,,,4/1-3[8:1],,1-4[8:1]/5-8[8:1],,1/5,
,7,{4}7-3[8:1],{16}7/2,1,8-4[8:1],7,6,5,{8}4/8/Cf,
,B1/E2/B7/E7,{4}B5/E6/B3/E3,{16}4,6,4,6,3,7,3,7,
2,3,4,5,8,7,6,5,4/1,,,3,{8}3,5,
4h[16:1]/6h[16:1],4h[16:1]/6h[16:1],5h[16:1]/7h[16:1],5h[16:1]/7h[16:1],6h[16:1]/8h[16:1],6h[16:1]/8h[16:1],7h[16:1]/1h[16:1],7/1,
5h[16:1]/3h[16:1],5h[16:1]/3h[16:1],4h[16:1]/2h[16:1],4h[16:1]/2h[16:1],3h[16:1]/1h[16:1],1h[16:1]/3h[16:1],2h[16:1]/8h[16:1],8/2,
6/4,{24}2b/1h[8:1],3,4,{8}5,{24}7b/8h[8:1],6,5,{8}4,{24}2b/1h[8:1],3,4,{8}5,{24}7b/8h[8:1],6,5,
{4}4,{16}6/2,5,4,3,2/6w2[8:1],1,8,7,,,,,7,
6,5,4,{8}3h[8:1],{16}1,2,3,4,{8}5h[8:1],{16}8,7,6,5,
{8}4h[16:1]/2h[16:1],4h[16:1]/2h[16:1],8b,5h[16:1]/3h[16:1],3h[16:1]/5h[16:1],1b,4h[16:1]/6h[16:1],4h[16:1]/6h[16:1],
{16}1,2,3,4,{8}8/5h[8:1],{16}8,7,6,5,{8}1/4h[8:1],{16}1,2,3,4,
8,7,6,5,4,3,2/6,7,8,1,2,3,4/8,7,6,5,
4,3,4,3,{8}5b,{16}2,1,2,1,{8}3b,{16}7,8,7,8,
6,5,6,5,{8}7b,{16}3,4,3,4,{8}2b,{16}5,6,5,6,
4b,3,2,1,8,7,6/3b,2,1,8,7,6,5/2b,1,8,7,
6,5,4/1b,8,7,6,5,4,3/8b,1,2,3,4/7,6,5,4,
{8}3bh[8:3]/1bh[8:3],{48},,,,,,,,,,,,B3/B1,Cf,B7/B5,A7/A5,,,,,,,,,,,,,,,{4}6/4,
{16}3,5,3,5,{8}4h[8:1],{16}7,5,7,5,{8}6h[8:1],3h[16:1],3h[16:1],
{16}5,4,5,4,5,4,6,4,6,4,6,4,7,4,7,4,
{8}6h[16:1]/5h[16:1],5h[16:1]/6h[16:1],C,4h[16:1]/3h[16:1],3h[16:1]/4h[16:1],C,2h[16:1]/1h[16:1],1h[16:1]/2h[16:1],
{16}8bx,7,6,5,4,3,2/8bx,7,6,5,4,3,2/8bx,7,6,5,
4/1bx,2,3,4,5,6,7/1bx,2,3,4,5,6,7/1bx,2,3,4,
{8}5/8h[16:1],8h[16:1],1h[16:1]/7h[16:1],7h[16:1]/1h[16:1],2h[16:1]/6h[16:1],2h[16:1]/6h[16:1],3h[16:1]/5h[16:1],3h[8:1]/5h[8:1],
{24},,,7b/8h[8:1],6,5,{8}4,{24}2b/1h[8:1],3,4,{8}5,{24}7b/8h[8:1],6,5,4,3,2,1,8,7,
{16}6/2b,3,4,5,6,7,8/5b,4,3,2,1,8,{24}7/5b,4,3,2,1,8,
{16}7/5b,6,7,8,1,2,3/8b,7,6,5,4,3,{24}2/8b,7,6,5,4,3,
{1}6-2[2:3]/2-6[2:3],
,Ch[1:2]/7-5-2>1b[4:7],
E
