&title=運命論 feat. えみゅう。
&artist=ルゼ
&first=0
&des=The Lover of Fragrance (MASTER 14)
&lv_5=14+
&des_5=The Lover of Fragrance (MASTER 14)
&inote_5=(170){2},,3h[2:1],4h[2:1],5h[2:1],6h[2:3],4h[1:2],,,,7h[2:1],5h[2:1],4h[2:1],2h[2:3],7h[1:1],,,8b/1b,
{8}5/1,2,8,3,4/7,6,3,5,
2/4,1,8,1,5/7,6,4,{16}6,5,
{8}6,7,1/8,7,8/3,5,4/6,7,
{1}3h[4:3]/8-4[2:1],
{8}2/5,6,7/3,4,8/4,7,6/5,4,
3/6,2,1/5,8,6/7,5,3/4,2,
{16}6,5,6,5,7,4,7,4,8,3,8,3,1,2,1,2,
4,3,4,3,5,2,5,2,6,1,6,1,7,8,7,8,
{1}1-4[4:1]/6-3[4:1],
{4}2-4[8:1],{16}2/8h[4:1],,,5,{8}5-2[8:1],8-6[8:1],{4}5,
1-3[8:1],{16}1/7h[4:1],,,4,{8}4-1[8:1],7-5[8:1],{4}4,
8-2[8:1],{16}8/6h[4:1],,,3,{8}3-8[8:1],6-4[8:1],{4}3,
{16}1,2,3,4,5,6,7,8,5,4,3,2,1,8,7,6,
{4}2-5[8:1],{16}2/5-3[8:1],,,6<1[8:1],{2}6-1[8:1],
{4}2-5[8:1],{16}2/1-6[8:1],,,4>2[8:1],{2}4-2[8:1],
{4}5-7[8:1],{16}5/1-3[8:1],,,1/8<5[8:1],{2}8-4[8:1],
{16}3,2,1,8,7,6,5,4,8,1,2,3,4,5,6,7,
{4}8/4-8[8:1],{16}4/5-7[8:1],,,1>3[8:1],{2}1-3[8:1],
{4}8-6[8:1],{16}8/1-3[8:1],,,5<7[8:1],{2}5-7[8:1],
{4}4-2[8:1],{16}4/8-6[8:1],,,4>2[8:1],{2}4-2[8:1],
{16}8,1,7,2,6,3,5,4,6,5,7,4,8,3,1,2,
{4}1-5[8:1],{16}1/8-6[8:1],,,3-6[8:1],{2}3-8[8:1],
{4}7-5[8:1],{16}7/3-5[8:1],,,8-3[8:1],{2}8-5[8:1],
{4}2-6[8:1],{16}2/1-7[8:1],,,4-1[8:1],{1}4-7[8:1],
{4},8-4[8:1],
8b/2b,1-5[8:1],{8}1/6,7,{4}8-4[8:1],
8/4-7[8:1],{8}3,2,{4}1>3[8:1],1/8,
5/6<8[8:1],2,{8}2/1-6[8:1],3,{4}4-8[8:1],
7-5[8:1],3-1[8:1],{8}4,5,{4}6-2[8:1],
6/5-1[8:1],5/7,{8}1h[4:1]/7-3[8:1],6,{4}7b,
2/4-8[8:1],4/1,{8}8h[4:1]/2-6[8:1],3,{4}2b,
{8}5/7,4,3/6,2,1/5,{16}7,8,{8}7h[8:1],5,
4/2,5,6/3,7,8/4,{16}2-6[8:1],1,{8}3,8,
{4}8b,{8}5>1[2:1],,6,6,7,7,
{2}8<5[8:1],4<7[8:1],
{4}1>5[2:1],{8}8,8,7,7,{4}6<1[8:1],
,2<7[8:1],,3h[8:1],
{8}4/5,{16}6,5,{8}6,7/4h[8:1],8,{16}3,4,{8}3,2/5h[8:1],1,
{16}7,8,{8}6,5/1,4/2,3,4/5,6,7/5,8,8/4,3,5/2,3,4/7,8,
{16}5b,6,,3b,{8}4,{16}2b,1,,8b,{8}7,{16}4,5,4,5,
{8}2,{16}2,7,{8}2,2/7,{16}8,1,7,2,6,3,5-1[2:7],4,
{1}5<4[1:7],,,,,,,,{8}3,
4,5,6h[2:1],,,,,6,
5,4,3,2,1,{4}8h[4:1],
6-2[8:1],{8}4,4h[2:1],,,,5,
{1}5-1[8:1],
{8}2,3,4,5h[2:1],,,,,7,
6,5,4,3,2,{4}1h[4:1],
8-4[8:1],{8}7,7h[2:1],,,,5,
{4}5-1[4:1],,,5h[4:1],
{16}1,2,3,4,8,1,2,3,7,8,1,2,6,7,8,1,
5h,1,5,1,5,1,5,1,{32}4,3,2,1,8,7,6,5,{4}4/8,
{16}8,4,8,4,7,3,7,3,6,2,6,2,5,1,5,1,
4,8,4,8,4,8,4,8,{24}4,3,2,1,8,7,{4}2/6,
{16}2,5,2,5,3,6,3,6,4,7,4,7,3,8,3,8,
2,1,2,1,2,1,2,1,{24}3,4,5,6,7,8,{4}1/5,
{16}5,2,5,2,6,3,6,3,7,4,7,4,6,5,6,5,
8,3,8,3,8,3,8,3,{24}8,7,6,5,4,3,1,8,7,6,5,4,
{8}7/3h[8:1],7,2/6h[8:1],2,5/1h[8:1],5,8>3[4:3]/4<7[4:3],8,{1}8b/4b,
{8}8/4h[8:1],8,3/7h[8:1],3,6/2h[8:1],6,1>4[4:3]/5<8[4:3],1,{1}1b/5b,
{8}5/1h[8:1],5,7/3h[8:1],7,2/6h[8:1],2,8/4h[8:1],8,
{2}1-4[8:1]/5-8[8:1],3-8[8:1]/7-4[8:1],
{16}1,2,3,4,8,1,2,3,7,8,1,2,6,7,8,1,
{24}6b,2,6,2,6,2,6,2,6,2,6,2,6/2,5/1,4/8,3/7,2,1,8,7,6/2,5/1,4/8,3/7,
{2}6/2-6[8:1],{24}6b,5,6,5,,,{8}4/7,{24}3,4,3,
{8}4,5/2,{16}7,8,7,8,{24}6,5,6,5,,,{8}7,{24}7,8,7,
{8}8,1/6,{24}3,4,3,4,,,{16}2,1,{8}2,8/3,{24}2,1,2,
{8}1,3/8,{24}7,4,7,4,,,{16}6,5,{8}6,7/4,{16}3,4,
{8}3,2/5,{24}3,4,3,4,,,{16}2,5,2,5,1,6,3,4,
8,7,2,5,3,7,5,6,2,1,4,7,3,8,2,1,
4,7,5,6,3,8,4,6,1,7,3,5,2,7,1,5,
4,6,2,8,3,7,4,6,{2}5h[8:3],
{32}1,2,3,4,5,6,7,8,{4}1b/2b,{16}6,2,{8}7,8/3,{16}4,5,
{8}4,6,5/7,8,{24}2,1,2,1,,,{8}3,{16}3,4,
3,2,{8}3,{16}5,4,{8}5,{24}6,5,6,5,,,{8}7,{16}6,5,
6,7,{8}6,{24}4,5,4,5,,,{16}3,4,{8}2,2/4,{16}2,1,
2,3,{8}2,{24}8,1,8,1,,,{16}7,8,{8}7,7/8,{16}6,5,
6,5,{8}7,{24}2,1,2,1,,,{16}3,4,{8}2,1,{16}8,1,
8,1,{8}7,{24}5,6,4,5,,,{16}2,4,{8}3,3/5,{16}6,4,
6,5,{8}7,{16}8,1,{8}8,{16}2,1,{8}2,2/3,{16}4,5,
6,7,{8}8h[8:1],{24}4b,8,{6}4,{48}3,,,7,,,{16}4,6,1,5,2,4,
3,8,4,7,5,6,1,8,3,4,8,7,5,6,1,8,
5,6,2,3,1,8,5,6,8,7,3,4,2,1,4,5,
8,7,3,4,1,8,5-1[4:3],6,{1}3b,
{16}8,1,4,3,7,8,6,5,
1,2,5,4,7,1,6,5,8,3,1,2,5,3,7,8,
6,5,8,2,4,3,6,4,7,5,{8}8-4[4:3],,,
{2},,2-6[8:1],{1}1b/8<1[2:7],8h[8:1],2h[8:1],{2}4h[8:1],7-3[8:1],
{8}1,2,3,4,5,6,7,8,1b/2b,8,7,6,5,4,3,2,
{16}8,1,8,1,8,1,8,1,7,1,8,1,8,1,8,1,7,2,7,2,6,3,6,3,5,4,5,4,5,5,5,5-1[2:5],5b,
E
