&title=Yes,my master my lord
&artist=ジブリール(CV:田村ゆかり)
&first=0.02
&des=Tane
&freemsg=ジブリール(CV:田村ゆかり)
&wholebpm=
&des_1=Tane
&des_2=Tane
&des_3=Tane
&des_4=Tane
&des_5=Tane
&lv_1=2
&lv_2=3
&lv_3=5
&lv_4=7
&lv_5=12+
&inote_1=(118){1},
{4},,,,
{4},,,{16},,,,
{2}2,,
{2}2,,
{2}7,,
{2}7,,
{2}2,,
{2}7,,
{2}1,,
{2}8,,
{4}18,,,,
{1}2b,
{8}4,,,,
,,,,
{8}5,,,,
,,,,
{8}3,,,,
,,,,
{8}6,,,,
,,,,
{8}7,,,,
,,,,
{8}2,,,,
,,,,
{8}18,,,,
,,,,
{1}2,
{1}7,
{1}3,
{1}6,
{2}1,,
{2}8,,
{1}1,
{1}8^5[2:1],
{8}1,,,,
,,,3,
{8},,,,
,,,,
{8}4,,,,
,,54,,
{4},,,,
{2}7,,
{2}4,,
{4}1,,,,
{1}1-4[2:1],
{4}7v4[4:1],,,,
{4}4,,,,
{2}7-5[4:1],,
{4}7,,,,
{4}45,,,,
{4}5,,,,
{2}2-4[4:1],,
{4}2,,,,
{4}4,,,,
{2}34,,,,
{2}13,,
{4}7,,,,
{2}3>6[8:5],,
{2}57,,
{2}2-8[4:1],,
{8}2>8[2:3],,,,
,,,,
{1},
{4}4,,,,
{4}3,,,,
{4}7,,,,
{1}4,
{4}8,,,,{8}6^3[1:2],,,
{1},,,,,,,,
&inote_2=(118){1},
{4},,,,
{4},,,{16},,,,
{2}2,,
{2}2,,
{2}7,,
{2}7,,
{2}2,,
{2}7,,
{2}1,,
{2}8,,
{4}18,,,,
{1}2b,
{8}4,,,,
,,,,
{8}5,,,,
,,,,
{8}3,,,,
,,,,
{8}6,,,,
,,,,
{8}7,,,,
,,,,
{8}2,,,,
,,,,
{8}18,,,,
,,,,
{1}2,
{1}7^2[2:1],
{1}3,
{1}6^3[2:1],
{2}1,,
{2}8,,
{1}1,
{1}8^5[2:1],
{8}1,,,,
,,,3,
{8},,,,
,,,,
{8}4,,,,
,,54,,
{4},,45,,
{2}7,,
{2}4,,
{4}1,,8,,
{1}1-4[2:1],
{4}7v4[4:1],,,,
{4}4,,,,
{2}7-5[4:1],,
{4}7,,,,
{4}45,,,,
{4}5,,,,
{2}2-4[4:1],,
{4}2,,,,
{4}4,,,,
{2}34,,,,
{2}13,,
{4}7,,,,
{2}3>6[8:5],,
{2}57,,
{2}2-8[4:1],,
{8}2>8[2:3],,,,
,,,,
{1},
{4}4,,5,,
{4}3,,1,,
{4}7,,2,,
{1}4v5[4:2],
{4}8,,,,{8}6^3[1:2],,,
{1},,,,,,,,
&inote_3=(118){1},
{4},,,,
{4},,,{16},,,,
{2}2,,
{2}2,,
{2}7,,
{2}7,,
{2}2,2,
{2}7,7,
{2}1,1,
{2}8,8,
{4}18,,,,
{1}2b,
{8}4,,,,
,,,,
{8}5,,,,
,,,,
{8}3,,,,
,,,,
{8}6,,,,
,,,,
{8}7,,,,
,,,,
{8}2,,,,
,,,,
{8}18,,,,
,,,,
{1}2,
{1}7^2[2:1],
{1}3,
{1}6^3[2:1],
{2}1,,
{2}8,,
{1}1,
{1}8^5[2:1],
{8}1,,,,
,,,3,
{8},,,,
,,,,
{8}4h[4:1],,,5h[4:1],
,,54,,
{4},,45,,
{2}7,5,
{2}4,2,
{4}1,,8,,
{1}1-4[2:1]/8-5[2:1],
{4}1v4[8:1]/7v4[8:1],,35,,
{4}4,,2,,
{2}7-5[8:1],2-5[8:1],
{4}7,,3,,
{4}45,,27,,
{4}5,,7,,
{2}2-4[8:1],7-4[8:1],
{4}2,,6,,
{4}4,,26,,
{2}34,,12,,
{2}13,,
{4}7,,5,,
{2}3>6[8:5],,
{2}57,,
{2}2-8[8:1],6-8[8:1],
{8}2>8[2:3],,,,
,,,,
{1},
{4}4,,5,,
{4}3,,1,,
{4}7,,2,,
{1}4q5[4:3],
{4}8,,,,{8}6^3[1:2],,,
{1},,,,,,,,
&inote_4=(118){1},
{4},,,,
{4},,,{16},,,,
{2}2,,
{2}2,,
{2}7,,
{2}7,,
{2}2,2,
{2}7,7,
{2}1,1,
{2}8,8,
{4}18,,,,
{1}2b,
{8}4,4,,,
,,,,
{8}5,5,,,
,,,,
{8}3,3,,,
,,,,
{8}6,6,,,
,,,,
{8}7,7,,,
,,,,
{8}2,2,,,
,,,,
{8}18,18,,,
,,,,
{1}2^7[2:1],
{1}7^2[2:1],
{1}3^6[2:1],
{1}6^3[2:1],
{2}1,12,
{2}8,78,
{1}1^4[2:1],
{1}8^5[2:1],
{8}1h[8:7],,,,
,,,3h[8:7],
{8},,,,
,,,,
{8}4h[4:1]/5,,,4/5h[4:1],
,,5h[2:1]/4h[2:1],,
{4},,45,45,
{2}7h[2:1],5h[2:1],
{2}4h[2:1],2,
{4}1,1,8,8,
{1}1-4[2:1]/8-5[2:1],
{4}1v4[8:1]/7v4[8:1],,3V14[8:1]/5V74[8:1],,
{4}4,3,2,1,
{2}7-5[8:1]/8,1/2-5[8:1],
{4}7,6,3,4,
{4}45,36,27,,
{4}5,6,7,8,
{2}2-4[8:1]/1,8/7-4[8:1],
{4}2,3,6,5,
{4}4,35,26,,
{2}34,56,12,78,
{2}13,68,
{4}7,6,5,4,
{2}3>6[8:5],,
{2}57,24,
{2}2-8[8:1]/4-6[8:1],4-2[8:1]/6-8[8:1],
{8}2>8[2:3]/8<2[2:3],,,,
,,,,
{1},
{4}4,4,5,5,
{4}3,2,1,,
{4}7,7,2,3,
{1}4q5[4:3],
{4}8,,7,,{8}6^3[1:2],,,
{1},,,,,,,,
&inote_5=(118){1},
{4},,,,
{4},,,{16},,4,3,
{2}2-4[4:1],1-5[4:1],
{2}8-4[4:1],7-5[4:1],
{2}2V41[8:3],6V85[8:3],
{2}1V72[8:3],6-3[8:1],
{4}2-4[8:1],28,7-5[8:1],17,
{4}1-5[8:1],18,8-4[8:1],18,
{4}2-4[8:1],2/1-5[8:1],1/8-6[8:1],8/7-3[8:1],
{4}7/1<5[4:1],,{16}8,,4,7,
3,6,2,5,
{4}1h[4:4],,,,
{4}5bqq2[8:5],,,,
{8}4pp7[8:5],4,,,
,,,,
{8}5,6pp1[8:5],,,
,,,,
{8}4,3qq8[8:5],,,
,,,,
{8}7qq4[8:5],8,,,
,,,,
{8}2pp5[8:5],1,,,
,,,,
{8}4qq5[8:5]/5pp4[8:5],36,,,
,,,,
{8}3qq5[8:5]/6pp4[8:5],45,,,
,,,,
{4}2-7[8:1],26,{16}47,,6,5,
6,,47,,
{4}7-4[8:1],8-4[8:1],1-5[8:1],2-5[8:1],
{4}1,8,{16}7,,,6<3[8:5],
5,,6h[8:7],,
{4},,,,
{4}7-2[8:1],73,{16}52,,3,4,
3,,52,,
{4}2-5[8:1],2/1-5[8:1],1/8-4[8:1],8/7-4[8:1],
{4}2/7,2^7[8:1],27,7^2[8:1],
{4}2/7,2^4[8:1]/7^5[8:1],2v7[8:1]/7p2[8:1],,
{8}1h[8:7],,,3,
5,7,,8h[8:7],
{8},1,3,5,
7,,1,2,
{8}3h[4:1]/7,,6,5/1h[4:1],
,4,7>3[8:3]/3,,
{8}4,,5,,
6,45,3,45,
{8}7h[2:1],8,1,,
2h[2:1],3,4,5,
{8}6h[2:1],7,8,1,{16}2,,3,4,
3,,25,,
{4}1-5[8:1],17,8-4[8:1],38,
{16}3,5,3,5,
2,6,2,6,
1,7,1,7,
8,8,8,8,
{4}1v4[8:1]/7v4[8:1],,3V14[8:1]/5V74[8:1],,
{4}1bv4[8:1]/7bv4[8:1],1b-3[12:1]/7bV58[16:3],1b<4[8:1],{8},8-4[8:1],
{16}1,,8<4[4:1],1,
,,2,,
2,,,,
,,4,,
{16}25,,3,3,
,,5,4,
7,,6,6,
,,81,,
{4}2v4[8:1]/7v5[8:1],2V41[4:1]/7V58[4:1],,,
{4}8bv5[8:1]/2bv5[8:1],8b-6[12:1]/2bV41[16:3],8bV25[8:1],{8},1^4[8:1],
{16}6,,1qq3[4:1],8,
,7,1,,
5,,,,
,,1,,
{8}24,3,57,6,
{16}4,5,4,5,
3,6,3,6,
{16}27,,,48,
,,16,,
1,8,1,8,
2,7,2,7,
{16}2q7[4:1],,,6,
,,4,,
3^6[8:1],,,2,
,,1-7[8:1],,
{16}8,,1V35[4:1],6,
,,1,,
8,,,,
,,78,,
{16}16,,3,3,
,,12,,
38,,6,6,
,,78,,
{4}1,2,3,4<1[4:3],
{2}5h[4:3],{16},,,,
,,1,5,
{16}2,,3,3,
,,48,,
75,,6,6,
,,12,,
{2}3^8[8:1]/8-3[8:1],8v2[8:1]/3V57[8:1],
{8}2p8[2:1]/7<3[2:1],,,,
,,,{16}15,26,
{1}3h[4:3]/7h[4:3],
{4}3^5[8:1],37,7-4[8:1],71,
{4}1-5[8:1],1/8-4[8:1],1<5[8:1]/8,,
{4}1v4[8:1]/8v5[8:1],1^3[8:1]/8^6[8:1],1q5[8:1]/8p4[8:1],1pp4[8:3]/8qq5[8:3],
{4}18,,{16}18,,1,5,
3,7,1,5,
{4}1,,2,,{8}3,,,{16}3,4,5bs1[8:13],,{4},,,,
{1},,,,,,,,
