&title=『めっっっ。』
&artist=SLAVE.V-V-R
&first=0.06
&des=カっルっマっ
&lv_5=13+
&inote_5=(166)
{1},,
{8}8-5[8:1]/5,8/5-2-4[16:6]*-8-6[16:6],,,,,,,
{8}2<3[16:7]/6-2[4:1],2/6,,,,,,,
{8}5-8[4:1]/8z4[16:7],5/8,,,,,,,
{32}1b/8b,2q3[1:1]/7p6[1:1],36,45,{8},,,,,,,
{4},,2v3[8:1]/7v6[8:1],,
{4}3h[8:1]/5h[8:1],3h[8:1]/5h[8:1],{16}3-8[8:1]/5-8[8:1],,,35,,,,,
{4}6h[8:1]/4h[8:1],6h[8:1]/4h[8:1],{16}6-2[8:1]/4V28[8:1],,,64,,,,,
{4}3h[8:1]/5h[8:1],3h[8:1]/5h[8:1],{16}3v1[8:1]/5-8[8:1],,,35,,,,,
{4}6h[8:1]/4h[8:1],6h[8:1]/4h[8:1],{16}6v5[8:1]/4v3[8:1],,,,,,,,
{4}3h[8:1]/5h[8:1],3h[8:1]/5h[8:1],{16}4-6[8:1]/3-7[8:1],,,43,,,,,
{4}6h[8:1]/4h[8:1],6h[8:1]/4h[8:1],{16}6-3[8:1]/5-1[8:1],,,65,,,,,
{4}3h[8:1]/5h[8:1],3h[8:1]/5h[8:1],{16}4-8[8:1]/3-1[8:1],,,34,,,,,
{4}3h[8:1]/5h[8:1],6h[8:1]/4h[8:1],6-2[8:1]/7,5h[4:15],6h[4:13],,,,
{1},,{4},,6-2b[8:1],4hb[4:14],
{4}5h[4:14],,,,,,,,,,,,
{4},,4-8b[8:1],,
{16}1/5,,,1/5,,,2/6,,2^7[8:1]/6^3[8:1],,,,,,,,
{16}8/4,,,8/4,,,7/3,,7^2[8:1]/3^6[8:1],,,,,,,,
{16}1/5,,,1/5,,,2/6,,2^7[8:1]/6^3[8:1],,,,,,,,
{8},7b/1b,6b/4b,2b/8b,4bqq2[8:1]/5bpp7[8:1],,,,
{4}6h[8:1]/5h[8:1],7h[8:1]/1h[8:1],3h[8:1]/4h[8:1],2h[8:1]/8-3-6q2-5[16:12],
{1}4h[4:3],
{4}3h[8:1]/4h[8:1],2h[8:1]/8h[8:1],6h[8:1]/5h[8:1],7h[8:1]/1-4-7-2[16:8],
{4}5h[4:3],,,6,
{4}6h[8:1]/4h[8:1],3h[8:1]/5h[8:1],6h[8:1]/4h[8:1],3h[8:1]/5h[8:1],
{16}6h[16:3],,,7h[16:3],,,8^5[4:1],,,,1,,2,,3,,
{4}3h[8:1]/5h[8:1],6h[8:1]/4h[8:1],3h[8:1]/5h[8:1],6h[8:1]/4h[8:1],
{16}3h[16:3],,,2h[16:3],,,1^4[4:1],,,,8,,7,,6,,
{4}6h[8:1]/4h[8:1],3h[8:1]/5h[8:1],6h[8:1]/4h[8:1],3h[8:1]/5h[8:1],
{16}6h[16:3],,,7h[16:3],,,8^5[4:1],,,,1,,2-5[8:1],,3,,
{8}8-4[8:1]/2,7,1-5[8:1]/8,2,1/6^1[8:1],7,4^1[4:1]/6,,
{4}1^6[4:1],6^3[4:1],3,6h[4:1],
{16}5x,6,5,6,5,6,5,6,5,6,5,6,5,6,5,6,
{8}5bx,5bx/6bx,4b/7b,3b^2-7[16:4]/8bV63[16:4],2b/1b,,,,
{16}E1,,E2,,E3,,E6,,E7,,B3,B4,E5,,Ch[4:1],,
{16},,B2,,E8,,Ch[4:1],,,,E1,B8,B7,,,,
{16}E5,,E6,,E7,,E2,,E3,,B7,B8,E1,,Ch[4:1],,
{16},,A8,,A7,,A6,,5x-7[8:1]/4x-2[8:1],,,,4b/5b,,,,
{16}8,,1,,2,,3,,4,,6,5,6,,7^5[8:1],,
{16},,8,,1,,2^4[8:1],,,,5,6,7,,,,
{16}8,,1,,2,,3,,4,,{24}5,4,6,5,,,{16}7^5[8:1],,
{16},,8,,2,,4,,4v1[8:1]/5v8[8:1],,,,4b>5[8:21]/5b,,,,
{8},8,7,,7,6,,6,5,,5,6,,7^5[8:6],7,,1,2,,3,,4h[4:1],,3h[8:9],
{8},,,2,,1,,8,
{8}7>3[4:5]*<7[4:10],,,,,,,,,,,,,,,,Ch[8:7],,,,,,,6h[4:1],
{8},5h[8:1],6h[8:1],7h[8:1],6h[8:1],5h[8:1],6b-1^7v2[4:3]*-3^5v2[4:3],,
{1},
{16}35,,35,,24,,24,,1^4[16:1],,,71,,,,,
{16}64,,64,,75,,75,,8^5[16:1],,,28,,,,,
{16}35,,35,,24,,24,,1^4[16:1],,,71,,,,,
{16}64,,64,,75,,75,,8^5[8:1],,,,,,,,
{16}3x/5x,,35,,24,,24,,1v2[8:1]*v7[8:1],,,1,,,,,
{16}6x/4x,,64,,75,,75,,8^5[8:1]*v6[8:1],,,8,,,,,
{16}3x/5x,,35,,24,,24,,1-5-3[8:1]*-5-7[8:1],,,1,,,,,
{16}6x/4x,,64,,75,,75,,8V62[8:1],,,,,,,,
{1}Chf[1:1],
{48}E5,B5/B4,B6/B3,B7/B2,B8/B1,E1,,,,,,,{4}1bx^4[4:5]/8bx^5[4:5],,,,,,,
{4}2-7[8:1]/6-3[8:1],,7-2[8:1]/3-6[8:1],,
{16}4hbx[16:3],,,2hb[64:27],,,6hb[64:15],,,,{32}15,84,37,26,15,4,3,2,1,8,7,6,
{8}5bx>2[4:1],,2<6[4:1],,6>4[8:1],,4,,
{16}Cf/2b,,,Cf/8b,,,Cf/4b-8b[8:1],,{2},
{4}6h[8:1]/5h[8:1],7h[8:1]/1h[8:1],3h[8:1]/4h[8:1],2h[8:1]/8-3[16:3]-7[16:3]<8[16:6],
{16}4h[4:3]/B1f,,,Cf,,,A6f,,,,,,,,,,
{4}3h[8:1]/4h[8:1],2h[8:1]/8h[8:1],6h[8:1]/5h[8:1],7h[8:1]/1q6[16:3]v3[16:3]-7[16:2],
{16}5h[4:3]/B2f,,,Cf,,,Cf,,,,,,6,,,,
{8}6/4,7,3/5,2,6/4,7,3/5,2,
{16}6h[16:3],,,7h[16:3],,,8^5[4:1],,,,1,,2,,3,,
{8}3/5,2,6/4,7,3/5,2,6/4,7,
{16}3h[16:3],,,2h[16:3],,,1^4[4:1],,,,8,,7,,6,,
{8}6/4,8,3/5,1,6/4,8,3/5,1,
{16}6h[16:3],,,7h[16:3],,,8^5[4:1],,,,1,,2,,3,,
{8}3/5,1,6/4,8,3/5,1,6/4,8h[8:5],
{4},6,6-2[8:1],,
{4}2bxq3[4:9]/6bq7[4:9],,,,,,,,,,,,
{16}3h[16:3],,,2h[16:3],,,1-5-3[4:1],,,,8,,7,,6,,
{8}56,8,34,1,56,8,34,1,
{16}6h[16:3],,,7h[16:3],,,8-4-6[4:1],,,,1,,2,,3,,
{8}43,2,65,7,43,2,65,7,
{16}3h[16:3],,,2h[16:3],,,1-5-3[4:1],,,,8,,7-1[8:1],,6,,
{8}7/2-6[8:1],3,2/8-4[8:1],7,8/5^2[8:1],6,5x/1<5[4:1],,
{4}5>1[4:1],1<5[4:1],5,3h[4:1],
{16}2,3,2,3,2,3,2,3,2,3,2,3,2,3,2,3,
{8}2bx,2bx/3bx,7b/8b,4b/5b,1bw5[41.5#32:1]/2b,,,,
{8},,,,,,,,
{32}5hx[4:15]/1x,2x,3x,4x,,6x,7x,8x,1x,2x,3x,4x,,6x,7x,8x,1x,2x,3x,4x,,6x,7x,8x,1x,2x,3x,4x,,6x,7x,8x,1x,2x,3x,4x,,6x,7x,8x,1x,2x,3x,4x,,6x,7x,8x,1x,2x,3x,4x,,6x,7x,8x,1x,2x,3x,4x,,6x,7x,8x,1x,2x,3x,4x,,6x,7x,8x,1x,2x,3x,4x,,6x,7x,8x,1x,2x,3x,4x,,6x,7x,8x,1x,2x,3x,4x,,6x,7x,8x,1bx,2bx,3bx,4bx,,6bx,7bx,8bx,1bx,2bx,3bx,4bx,,6bx,7bx,8bx,1bx,2bx,3bx,4bx,,6bx,7bx,8bx,1bx,,,,,,,,
{8}35,17,46,28,{16}1pp3[8:1]/8qq6[8:1],,,18,,,,,
{8}64,82,53,71,{16}4/5-8[8:1]*-2[8:1],,,45,,,,,
{16}4b/7b,,6,5,8b,,3,4,1bp4[8:1]*q6[8:1],,,1b,,,,,
{48}1bx/5bx,2x/6x,3x/7x,4x/8x,,,,,,,,,1bxw5[8:1]*w5[8:1]/5bx,84,73,62,,,,,,,,,{4}A1f,,,,,,E
&inote_6=
