&title=もうそう♥えくすぷれす
&artist=花澤香菜
&first=0
&des=[化]
&des_5=
&lv_5=13
&inote_5=(101)
{1},
{16}1h[8:1],,,,
3,5,4,6,
,,,6,
4,5,3,4,
{16}1h[8:1],,,,
5,4,6,3,
,,,6,
3,5,4,5,
{16}1h[8:1],,,,
3,5,4,6,
,,,6,
4,5,3,4,
{16}1h[8:1],,,,
1,1,,1b>5[16:1]*<5[16:1],
,,,,
,,,,
{16}5>3[8:1],,6,,
7<5[16:2],,,,
3<5[8:1],,2,,
1>3[16:2],,,,
{16}6>4[8:1],,7,,
8<6[16:2],,,,
3<5[8:1]*>1[8:1],,2,,
3,,,,
{16}2>5[8:1],,1,,
8>2[16:2],,,,
6>3[8:1],,7,,
8<6[16:2],,,,
{16}3<6[8:1]*>8[8:1],,2,,
3,,,7,
,62,62,62,
62,,1,,
{16}4/2>4[32:3],,1,5,
2,,6,,
7<5[32:3]/5,,8,4,
7,,3,,
{16}2>4[32:3]/5,,1,4>5[4:1],
2,6,,8h[32:10],
,,,,
,,,,
{16}5/7<5[32:3],,8,4,
7,,3,,
2>4[32:3]/4,,1,5,
2,,6,,
{16}7<5[32:3]/4,,8,5<4[4:1],
7,3,,1h[32:10],
,,,,
,,5,,
{16}7<5[32:3]/3>8[32:3],,8,4,
37,,4,,
5<8[32:3]/1>3[32:3],,8,4,
15,,4,,
{16}1<6[32:3]/5>2[32:3],,48,4<3[4:1]/8,
,,,,
,,,,
,,,,
{16}2>4[32:3]/6<1[32:3],,1,5,
62,,5,,
4>1[32:3]/8<6[32:3],,1,5,
84,,5,,
{16}8>3[32:3]/4<7[32:3],,51,5>6[4:1]/1,
,,,,
,,,,
,,,,
{16}2h[4:1],,8,7,
6h[4:1],,2,3,
4,5,3,2,
6,7,18,18,
{16}2b>4[32:3],,1,,
6>6[16:5],,,2<6[8:1],
,,,,
,,,,
{16}7<5[32:3],,8,,
3<3[16:5],,,7>3[8:1],
,,,,
,,,,
{16}1>4[8:1],,8,8,
1,,7,,
6<1[8:1],,5,5,
6,,4,,
{16}3<6[8:1],,2,2,
3,,1h[8:1],,
8,1,8,1,
2,7,3,6,
{16}4b<7[8:1],,3,,
5>5[16:5],,,1>5[8:1],
,,,,
,,,,
{16}8>3[8:1],,7,,
1<1[16:5],,,5<1[8:1],
,,,,
,,,,
{16}2>5[8:1],,6,6,
2,,7,,
1<6[8:1],,5,5,
1,,4,,
{16}1>4[8:1],,5,5,
1,,8h[8:1],,
4,37,26,15,
{32}8,7,6,5,4,3,2,1,
{16}8b>6[16:3],,,,
6>8[16:3],,,,
7>5[16:3],,,,
6,,,,
{16}1<3[16:3],,,,
3<1[16:3],,,,
2<4[16:3],,,,
3,,,,
{16}3>5[16:3],,,,
5<3[16:3],,,,
4>8[16:2],,,,
5,,,,
{16}2>4[134#16:1]/6>4[134#16:1],,17,2<8[134#16:1]/6<8[134#16:1],
,35,2>4[134#16:1]/6>4[134#16:1],,
17,2<4[134#16:3]/6<4[134#16:3],,35,
26,,,,
{16}3>5[16:3],,2,,
5<3[16:3],,4,,
4>6[16:3],,5,,
6,,,,
{16}5<3[16:3],,6,,
3>5[16:3],,4,,
4<2[16:3],,3,,
2,,,,
{16}4>6[16:3],,3,,
6<4[16:3],,5,,
5>1[16:2],,6,,
7,,8,,
{16}3>1[134#16:1]/7>1[134#16:1],,46,3<5[134#16:1]/7<5[134#16:1],
,28,3>1[134#16:1]/7>1[134#16:1],,
46,3<1[134#16:3]/7<1[134#16:3],,28,
37,,,,
{16}2h[8:1],,6,3h[8:1],
,7,7,5,
6h[8:1],,8,5h[8:1],
,8,6,,
{16}7h[8:1],,3,6h[8:1],
,2,2,4,
3h[8:1],,1,4h[8:1],
,1,3,,
{16}5h[8:1]/6h[8:1],,,5h[8:1]/4h[8:1],
,,3/4,,
2h[8:1]/6h[8:1],,,3h[8:1]/7h[8:1],
,,48,,
{16}2,4,1,3,
5,7,8,6,
1,3,2,4,
3,6,4>5[33.66666#24:1]*>5[33.66666#24:1]*>5[33.66666#24:1]*>5[33.66666#24:1]*>5[33.66666#24:1],5,
