&title=Kisses
&artist=Zekk
&first=-0.48
&des_1=谱师栏填写意义不明的文字看起来会很逼
&des_2=谱师栏填写意义不明的文字看起来会很逼
&des_3=谱师栏填写意义不明的文字看起来会很逼
&des_4=谱师栏填写意义不明的文字看起来会很逼
&des_5=谱师栏填写意义不明的文字看起来会很逼
&lv_5=13+
&des_6=谱师栏填写意义不明的文字看起来会很逼
&des_7=谱师栏填写意义不明的文字看起来会很逼
&des=谱师栏填写意义不明的文字看起来会很逼
&inote_5=(175){4},{16},,,,,,,,,,,,{4}4/6pp5[4:3],
4,4,4,
4,4,4,4/6,
5/3qq4[4:3],5,5,5,
5,5,5-8[8:1],5/4,
7x/1x>4[2:1],5,6,7,
8<4[2:1],4,3,2,
{8}1,1,6,6,4,4,7,7,
{2}Ch[2:1],8bx-4[8:1],
{4}2x/5x,{8}2,4h[4:1],,3,8,5h[4:1],
,6,6<1[4:1],1,{2}1>6[4:1],
{4}2,{8}7,5h[4:1],,6,1,4,
{4}4-7[8:1],2V48[8:3],{2}6h[4:1],
{4}1,{8}4,3h[4:1],,5,8,6h[4:1],
,7,7>4[4:1],4,{2}4<7[16:3],
{4}8,{8}2,4h[4:1],,3,7,5h[4:1],
,6,1,7,{4}7v8[8:1],4,
3-5[8:1],{8}2,2-6[8:1],,1,{4}1-5[8:1],
5,6<3[4:1],{2}3>6[4:1],
{4}4-2[8:1],{8}5,5-1[8:1],,6,{4}6-8[8:1],
{2}1-3[8:1]*-5[8:1],{4}4-8[8:1],5,
6-4[8:1],{8}7,7-3[8:1],,8,{4}8-4[8:1],
4,3>6[4:1],{2}6<3[4:1],
{4}5-7[8:1],{8}4,3-1[8:1],,4,{4}5-7[4:1],
7-4-8[2:1],1,{2}A3h[4:1]/A2h[4:1]/E3h[4:1],
{1}8x>7[2:3],
,3>4[8:13],
{2}7h[4:1],8xp4b[8:1],
{4}5x/3x,{8}2,2,5,5,{4}4,
7/5,{8}8,8,3,3,6,5,
1,1,8,8,{16}3,7,3,7,3q5<2[8:5],7,3,7,
{2}3x,4w8b[8:1],
{4}2b/6b,{8}7/5,6,{16}5/4-6[8:1],,,3,,,{8}2,
{16}3/4<7[8:1],,,2,,,{8}1,8>3[8:1],7,{4}5-8[8:1],
5/4,{8}2,3,{16}4/5-3[8:1],,,6,,,{8}7,
{16}6/5>2[8:1],,,7,,,{8}8,7-4[8:1],3-8[8:1],,,{4}7x,
{8}6,5,{16}5/4-6[8:1],,,3,,,{8}2,
{16}3/4<7[8:1],,,2,,,{8}1,8>3[8:1],7,{4}5q1[8:1],
5/4,{8}2,3,{16}4/5-3[8:1],,,6,,,{8}7,
{16}6/5>2[8:1],,,7,,,{8}8,7-3[8:1],1,{4}7/8w4b[8:1],
{2}8b>7[16:27],C,
C,8x>3b[8:1],
{4}8b/4b,{8}2/5,3,{16}6/5-7[8:1],,,4,,,{8}3,
{16}4/5<8[8:1],,,3,,,{8}2,1-5[8:1],6,{4}1<6[8:1]*>4[8:1],
1x,{8}8/2,3,{16}3/4-2[8:1],,,5,,,{8}6,
{16}5/4>1[8:1],,,6,,,{8}7,8p4[8:1],1,{4}2h[4:1],
5-8[8:1],3-6[8:1],7-2[8:1],1h[4:1],
{8}8,8,7/2,3/6,{2}4p8[8:1]/5q1[8:1],
{1}E7h[2:1]/B6h[2:1]/E6h[2:1]/2<3[2:3],
{4}8x,8x<5b[4:1],,,{1}2h[2:1]/4<3[2:3],
{4}E5,E6,E7,E8,
8x,8/4>1[4:1],8,8,
8/4qq5[2:1],8,8,8,
1/8,1/8<5[4:1],1,1,
{8}4/1,2,3/5,{16}6,5,6,5,{8}6,7/4,{16}3,4,
{4}2xb-8[8:1],{8}3,3-7[8:1],,4,{4}4-8[8:1],
8,7V52[4:1],2V48b[4:1],1,
1-3[8:1],{8}8,8-4[8:1],,7,{4}7-5[8:1],
{2}4-2[8:1]*-8[8:1],{8}1q5[8:1],8,{4}7/1,
7-1[8:1],{8}6,6-2[8:1],,5,{4}5-1[8:1],
1,2V47[4:1],7V51b[4:1],8,
8<6[8:1],{8}1,2>4[8:1],,1,{4}8<5[4:1],
5>2[4:1],2<5[8:3]*V86-4[8:3],,,{1}1bV72-6-3-5b[4:15],
,,,{8}6h[4:1],
,,5h[4:1],,,,7<5[8:5]/4>2[8:5],
,,,,,,,,4h[4:1],
,,3h[4:1],,,,5/2V48[4:3],
,,,,{4}5h[8:1],6h[8:1],
{2}1xh[4:1]/7x>6[2:3],3h[4:1],
5h[4:1],{4}7,7,
{2}8h[4:1]/2>1[2:3],6h[4:1],
{4}4,4z8b[4:1],,,2/7,
{8}3,3,5,4,6,6,
{4}8/5,{8}7,7,3,4,2,2,
6/1,5,3/4,2,{16}1,6,1,6,1-5[8:1],6,1,6p4>7b[16:9],
{4}1b,,,4-8b[2.7429##0.1714]*>5[2:3],
{1}4h[4:5],
{4},,4w8[8:1],{64}4b,Cf,,,,,,,,,,,,,,,{4}2b/6b,
{8}7/5,6,{16}5/4-6[8:1],,,3,{8}4,2,
{16}3/4<7[8:1],,,2,{8}4,1,{16}8-3[8:1],7,{8}1,{4}8/5-1b[8:1],
5b/4b,{8}2,3,{16}4/5-3[8:1],,,6,{8}5,7,
{16}6/5>2[8:1],,,7,{8}5,8,{16}7<4[8:1],1,{8}6,{4}7/8-2b[8:1]*v3b[8:1],
8b,{8}7,5/6,{16}5/4-6[8:1],,,3,{8}4,2,
{16}3/4<7[8:1],,,2,{8}4,1,{16}8-4[8:1],7,{8}1,{4}8/5w1b[8:1],
{2}5b<4b[16:27],C,
C,{4}5<8[8:1],5x,
7b/3b,{8}2/5,3,{16}6/5-7[8:1],,,4,{8}5,3,
{16}4/5<8[8:1],,,3,{8}5,2,{16}1-5[8:1],8,{8}2,{4}1w5b[8:1],
1b,{8}8/2,3,{16}3/4-2[8:1],,,5,{8}4,6,
{16}5/4>1[8:1],,,6,{8}4,7,{16}8-4[8:1],1,{8}7,{4}8/2,
4xh[8:1]/3h[8:1],5xh[8:1]/6h[8:1],2xh[8:1]/3h[8:1],7xh[8:1]/6h[8:1],
{8}8/1,7/2,6z2[8:2]/3s7[8:2],4/5,,,,,Ch[2:1],
,,,,8,{4}7b/1b>4[8:1],
{16}6x/1-5[8:1],7x,{8}8x,1-7[8:1],3,1,4,2/6,5,
{4}3/4-2[8:1],{8}4/5<8[8:1],6,{16}5/1x-5[8:1],2x,{8}3x,1,3,
{16}6x/2x-8[8:1],3x,{8}4x,2/7,6,5-1[8:1],3,{4}4/5w1b[8:1],
5b,{8}3/4>1[8:1],5,{16}7x/4-8[8:1],6x,{8}5x,4<7[8:1],2,
{16}4/1x-5[8:1],2x,{8}3x,1,4,2-5[8:1],8-4[8:1],2,8,
{4}1b,{8}6/5<8[8:1],3,{16}5/1x-5[8:1],2x,{8}3x,1,3,
2bxh[4:1]/3bxh[4:1],,,6bxh[4:1]/7bxh[4:1],,,{4}8bxz4[8:1]/1bxs5[8:1],
{64}8b/1b,C,E5f,,,,,,,,,,,,,,{8}7/8<5[8:1],1,{16}3x/8-4[8:1],2x,{8}1x,8>3[8:1],6,
{16}8/5x-1[8:1],6x,{8}7x,5,8,6-1[8:1],2-5[8:1],6,2,
{4}8b,{8}4/5<8[8:1],6,{16}5/1x-6[8:1],2x,{8}3x,1,3,
{16}5/2x-6[8:1],3x,{8}4x,1/2,8,7/5,4,{4}3/5w1b[8:1],
5b,{8}2>5[8:1],6,{16}2/7x-4[8:1],8x,{8}1x,7,1,
{16}5/2x-6[8:1],3x,{8}4x,6/2,7,8<5[8:1],3-8[8:1],8,3,
{4}4bxqq8[2:1]*<7[16:5],,,7h[4:1],
{8}8b,6b/5b,1b/2b,4b/3b,{2}6bp2[8:1]/1bv7[8:1],
{1}E7/B6/E6/E2/B2/E3/A2/A6/Cf,
E
