&title=MVURBD
&artist=ETIA.
&first=0.109999985
&des=Kanipoi
&lv_5=14
&inote_5=(175)
{1},,
{8},
{32}1x,2x/8x,3x/7x,4x/6x,
{4}5x-8-6[2:3]*-2-4[2:3],,,,,,,,7-4[8:9]/1-4[8:9],,,,,,
{8},
{8}28,3,4/5h[8:15],
{4}E3,E4,E5,E6,E7,E8,E1,E2,
{4}6h[1:1]/E3,E4,E5,E6,7-5v4-2[2:1],,,
{16}7-4[8:1],,,,87,,,,2-5[8:1],,5-1[8:1],,2,,7-4[8:1],,,,
87,,,,1,,2-5[8:1],,5-1[8:1],,2,,,,
8^5[8:1],,,,81,,,,2p6[8:1],,6v3[8:1],,2,,7,,,,2,,71,,56,,2-4[8:1],,5-7[8:1],,2,,5,,
{16}2-5[8:1],,,,12,,,,7-4[8:1],,4-8[8:1],,7,,2-5[8:1],,,,
12,,,,8,,7-4[8:1],,4-8[8:1],,7,,,,
1^4[8:1],,,,18,,,,6,,5,5,7,,4,,8<4[4:1],,,,4>8[4:1],,,,8<4[4:1],,,,4q8[8:1]*p8[8:1],,
{8},,,1pp5[2:1],,7,7,,6,6,,7h[4:1]/4h[4:1],,,7h[4:1]/4h[4:1],,,4/7,,
8qq4[2:1],,2,2,,3,3,,2h[4:1]/5h[4:1],,,2h[4:1]/5h[4:1],,,5/2,,
{8}1h[8:1]/2h[8:1],,4h[8:1]/7h[8:1],,3h[8:1]/8h[8:1],,5h[8:1]/6h[8:1],,
7,7,5,5,4,4,2,2,
{16}8,1,8,1,8,1,8,1,
{32}8,7,6,5,4,3,2,1,8V61[4:1],7,6,5,4,3,2,1,
{8}8,2V41[4:1],,2,8,,8-5[8:1]*-3[8:1],,8b,,
{16}2/6,,3,4,3,,3,5,3,,3,4,3,,3,5,3h[4:1],,7-3[8:1],,,,7/3-7[8:1],,,,1,,1-4[8:1]*-6[8:1],,,,
1b,,,,3/7,,6,5,6,,6,4,6-4[8:1],,6,,3,,2-6-2[4:1],,2,,6,,8-5[8:1]*-3[8:1],,,,8b,,,,
{16}2/6,,3x,4,2,,3x,5,2,,3x,4,2,,3x,6,2,,3x,4,2,,3x,7,2,,3x,4,1-4[8:1]*-6[8:1],,,,
1b,,,,7/3,,6x,5,7,,6x,4,7,,7-4[8:1],,7,,4,,3-8[8:1],,3,,5w1[8:1],,,,5b,,,,
7-4[8:1],,3,3,7,,1^4[8:1],,,,18,,,,7,,2-5[8:1],,5-1[8:1],,2,,7,,,,1x/8x,,2b/6b,,,,3-8[8:1],,7,7,3,,5,,,,21,,64,,87,,2-4[8:1],,8,,2,,7,7,5,,6,6,
{16}4q5[8:3],,,,5,,,,7-3[8:1],,,,3qq6[8:3],,,,,,4,,4q5[8:3],,,,7-3[8:1],,,,,,,,1h[4:1]/2,,,,2,,1,,4h[4:1],,6h[8:1],,,,
2q5[2:1]/1qq6[2:1],,,,,,,,,,,,,,
{8}1^6[8:1]*^4[8:1],,1b,,
{16}6,Ch[16:5],{8}6h[8:1],,8,8^5[8:1],1,8^3[8:1],,8qq3[4:1],,8,,2,,45,,6,6h[4:1],Ch[4:1],,8<3[4:1],,2,,1,28,,
56,4/8-4[8:1],,18,,3,2,5,6,1^4b[8:1]/7,,1,1x^6b[8:1],,1,3,,
5/1-5[8:1],7,81,,6,7,4,3,8^5b[8:1],,8^3b[8:1],,8-4b[8:1],,8,2,2h[1:1],,
{32}A1,E2,E3,,,,,,B8,C,B4,,,,,,E7,E6,A5,,,,,,
{8}8,,
{16}7b/4b,,6,5,
6,,2b/5b,,
3,4,3,,
{8}2b/7b,,16,2,35,6,4-8[8:1],7,4,,
{16}6b/1b,,7,8,
7,,3b/8b,,
2,1,2,,{8}1b/8b,,
8h[8:1]/7h[8:1],,5h[8:1]/2h[8:1],,6h[8:1]/1h[8:1],,4h[8:1]/3h[8:1],,
56,5,47,7,38,3,12,1,
{16}3,4,2,5,3,6,4,7,3,8,2,6,4,7,5,6,2,5,3,4,1,5,2,6,3,7,4,6,3,5,2,6,
{4}1b<1[2:3],,,,,,1^8-6[2:1],,6^5-3^2-8^7-5^4-1[2:3],,,,,,,,
{4}8>8[2:3],,,,,,8-5-2[2:1],,2-7-4-1-6-3[2:3],,,,,,,,
{8}45,,4,E8,4,C,4,E7,4,,4/E6,,4/E7,,4,E8,4/E1,,4,C,4,B5,4,B7,3,E6,3,B4,3/C,,3/E2,,
54,,5,E2,5,C,5,E3,5,,5/E4,,5/E3,,5,E2,5/E1,,5,C,5,B4,6<4[4:3],,Ch[4:3],,,,,
{8},,,7pp8<4b[2:1],,4,4,,3,3,,2bh[4:1]/3h[4:1],,,2h[4:1]/3bh[4:1],,,4/1,,
2qq1>5b[2:1],,5,5,,6,6,,7bh[4:1]/6h[4:1],,,7h[4:1]/6bh[4:1],,,8/5,,
{8}1h[8:1]/2h[8:1],,4h[8:1]/7h[8:1],,3h[8:1]/8h[8:1],,5h[8:1]/6h[8:1],,
7,7,5,5,4,4,2,2,
{16}8,1,8,1,8,1,8,1,
{32}8,7,6,5,4,3,2,1,8V61[4:1],7,6,5,4,3,2,1,
{8}8,2V41[4:1],,2,8,,8q4b[8:1]*p4b[8:1],,8bqq5>8[2:5]*pp3<8[2:5],,
{4},,,,,,,,,,,
{8}2b/6b,3,4,5,46,3,2/5h[4:1],,8b^3[8:1],,8b^5[8:1]/5b,,8b^3[8:1]/3b,,8b^5[8:1]/5b,,8b^3[8:1]/3b,,8b-4-8[4:1]/5b,,8b,1b,,2bv3-5[8:1]/7h[8:1],,
{16}7bx,6bx,5bx^8[8:1],,,,5b^2[8:1]/4b,,,,6b/5b,,,,
1b/8b,,7,7,5,,46,,27,,35,,1b/8b-4[8:1],,,,
{16}3b/8b,,,,2b^5[8:1],,6,6,2b,,7,,1b-5[8:1],,
8,,1b,,6,,2b-5[8:1],,5-1[8:1],,2b,,1bhx[384:1],8bx,
7bx-4[8:1],,7bx,,,,3,,1b^4[8:1],,5,5,1b,,7,,6b,,65,,2b/8b,,4b/3b,,1^4[8:1],,4x,4x,1-5[8:1],,6x,6x,1^4b[8:1],,4x,4x,
1b^6[8:1],,,,1b^4[8:1]/4b,,,,1b^6[8:1]/6b,,,,1b^4[8:1]/4b,,,,1b^6[8:1]/6b,,,,1b-5[8:1]/4b,,
,,1b,,6bx,7bx,8bx,,8bx/4bx,,
3b,4,2,5,3b,6,4,7,3b,8,2,6,4b,7,5,6,2b,5,3,4,1,5,2,6,3,7,4,6,1-4[8:1],5,2,6,
{4}1b,,,
{16}4-8[8:1]/7-5[8:1],,,,7-3[8:1]/4x,,,,7/1^6[8:1]*^4[8:1],,,,1,,,,5h[4:1],,3,,2,,8,1,7,,2,,3,,6-1[8:1]/4,,7,,6-4[8:1],,4,,6<4[8:3],,2,,6,,3,,,,
1-4[8:1],,,,18,,6,5,7-3[8:1],,4,,37,,2<4[4:1],,4,,26,,,,,,8-4[8:1],,,,18,,,,2-6[8:1],,35,,26,,7,5,8,,3,,2,,7-4[8:1]/1,,6,,7-1[8:1],,1,,7<1[8:3],,3,,7,,2,,,,4,,,,
{32}48,37,26,15,
{16},,2-6[8:1],,5,,62,,
{32}7,8,1h[16:3],,,,,,5b,4,3,2,1,8,7,6,5,4,3,2,
{16}1b-5[8:1]/6,,,,8/1b,,,,7-3[8:1],,64,,73,,2,4,1,,6,,7,,2^5[8:1]/8,,3,,2-8[8:1],,8,,2>8[8:3],,6,,2,,7,,,,5,,,,
{8}57,6,24,3,58,6,14,3,56,8,34,1,78,78,26,26,
{16}3,4,3,4,2,5,2,5,
{32}3,4,5,6,7,8,1,2,3q4<3[2:1],4,5,6,7,8,1,2,3,,,,,,,,,,,,,,,,,,,,
{8}57,
{16}1-6[8:1]*-4[8:1],,,,1b,,,,7-4[8:1],,3,3,7,,1^4[8:1],,,,18,,,,7,,2-5[8:1],,5-1[8:1],,2,,7,,,,1x/8x,,2b/6b,,,,3-8[8:1],,7,7,3,,5,,,,21,,64,,87,,2-4^5[8:1],,8,,2,,8,8,6,,7,7,
{16}4qq8[8:3],,,,5,,,,7p2[8:1],,,,2q5[8:3],,,,,,4,,4qq8[8:3],,,,7p3[8:1],,,,,,,,1h[4:1]/2,,,,2,,1,,4h[4:1],,6h[8:1],,,,
2qq5[2:1]/8pp5[2:1],,,,,,,,,,,,,,
