&title=VOX Rush
&artist=青龍&Sampling Masters MEGA&Sampling Masters AYA
&first=-0.151
&lv_2=4
&des_2=
&inote_2=
(202){4},,,,{1}1,
2,
3,
4,
5,
6,
7,
8/7,
1-4[2:1],
,8-5[2:1],
,1>4[2:1],
,8<5[2:1],
,1h[2:1]/8h[2:1],
7h[2:1]/2h[2:1],
3h[2:1]/6h[2:1],
4h[2:1]/5h[2:1],
{2}1b,1,
{4}2,2,{2}2,
3,3,
{4}4,4,{2}4/5,
5,5,
{4}6,6,{2}6,
7,7,
{4}8,8,{2}8/1,
{1}2-5[2:1],
,7-4[2:1],
,1-5[2:1],
,8-4[2:1],
{2},,1,
2,
3,4,
5,6,
7,8,
8,7,
6,5,
4,3,
2,1,
{1}2-6[2:1],
,7-3[2:1],
,4-1[2:1],
,5-8[2:1],
,Cf,
,E1,
E5,
E3,
,E7,
{2},,B1,
B2,
B3,B4,
B5,B6,
B7,B8,
B1,B2,
B3,B4,
B5,B6,
{1}8-3[2:1],
,7-4[2:1],
1h[1:1],
8h[1:1],
1b,
,,,,,,,1,
2,
3,
4,
5,
6,
7,
8/1,
{2}1b,1,
2,2,
3,3,
4,4,
5,5,
6,6,
7,7,
8,8,
{4}1,1,{2}1,
{4}2,2,{2}2,
{4}3,3,{2}3,
{4}4,4,{2}4/5,
{4}5,5,{2}5,
{4}6,6,{2}6,
{4}7,7,{2}7,
{4}8,8,{2}8,
{1}1b-5[4:3],
E
&lv_3=9+
&des_3=
&inote_3=
(202){4},,,,{2}1,
1,
2,2,
3,3,
4,4,
5,5,
6,6,
7,7,
8,8x,
{4}1,1,{2}1,
{4}2,2,{2}2,
{4}3,3,{2}3,
{4}4,4,{2}4b/5b,
{4}5,5,{2}5,
{4}6,6,{2}6,
{4}7,7,{2}7,
{1}8h[4:3]/1h[4:3],
2h[4:3]/7h[4:3],
3h[4:3]/6h[4:3],
4h[4:3]/5h[4:3],
{4}3x,3x,3x,3b/4b,
{16}2,,,2,,,{8}2,,,{4}2/1,
{16}7,,,7,,,{8}7,,,{4}7/8,
{16}3,,,3,,,{8}3,,,{4}3/4,
{16}6,,,6,,,{8}6,,5/6,{4}5/6,
{16}7,,,7,,,{8}7,,,{4}7/8,
{16}2,,,2,,,{8}2,,,{4}2/1,
{16}6,,,6,,,{8}6,,,{4}6/5,
7,7,7,7b,
1,1,2,2,
3,3,4,4b/5b,
5,5,6,6,
7,7,8,8b/1b,
1,1,2,2,
3,3,4,4b/5b,
5,5,6,6,
7x,7x,8,8x,
B1,B2,B3,B4,
B5,B6,B7,B8,
B1,B2,B3,B4,
B5,B6,B7,B8,
E1,E2,E3,E4,
E5,E6,E7,E8,
E1,E2,E3,E4,
E5,E6,E7,Cf,
{8},1x,,1x,,1x,,1x,
,2x,,2x,,2x,,2x,
,3x,,3x,,3x,,3x,
,4x,,4x,,4x/5x,{4}4x/5x,
{8},5x,,5x,,5x,,5x,
,6x,,6x,,6x,,6x,
,7x,,7x,,7x,,7x,
{1}7xh[2:1],
1s5[4:3],
,8-5[4:3]*-3[4:3],
,6V84[4:3]/3V15[4:3],
,7pp5[4:3],
Cf,
7V53[2:1],
1-4[2:1],
5q4[2:1],
2qq2[2:1]*>5[2:1],
3V14[2:1]/5V74[2:1],
7pp7[2:1]*<4[2:1],
2qq2[2:1]*>5[2:1],
8-5[2:1]*-3[2:1],
1-4[2:1]*-6[2:1],
4v7[2:1]*v1[2:1],
1-4[2:1]*-6[2:1],
5x-8[2:1]*v2[2:1],
Cf,
{2},,,,,,,,,,,,,,2h[4:1]/4h[4:1],
2h[4:1]/4h[4:1],
3h[4:1]/5h[4:1],3h[4:1]/5h[4:1],
4h[4:1]/6h[4:1],4h[4:1]/6h[4:1],
7h[4:1]/5h[4:1],7h[4:1]/5h[4:1],
{4}8,8,7,7,
6,6,5,5,
4,4,3,3,
2,2,1,1b,
1/2,1/2,3/8,3/8,
7/4,4/7,5/6,6b/5b,
8/7,8/7,6/1,6/1,
2/5,5/2,4/3,3b/4b,
8/1,8/1,2/7,2/7,
6/3,3/6,4/5,5b/4b,
1/2,3/4,5/6,7/8,
{8}1,2,3,4,5,6,{4}7bx,
{8}2,2,{4}1/2,{8}7,7,{4}7/8,
{8}3,3,{4}4/3,{8}6,6,{4}6b/5b,
{8}2,2,{4}1/2,{8}7,7,{4}7/8,
{8}3,3,{4}4/3,{8}6,6,{4}6b/5b,
{8}1,1,1,1,7,7,7,7,
3,3,3,3,5,5,5,5,
{2}4-1[4:1],8-5[4:1],
{4}1b,2b,3b,4b,
{1}Cf,
E
&lv_4=12+
&des_4=WYBXXJ
&inote_4=
(202){4},{16},,,,,,,,,,,,8,
,,7,,,{8}6h[8:3],,5,{4}5,
{16}1,,,2,,,{8}3h[8:3],,4,{4}4,
{16}8,,,7,,,{8}6h[8:3],,5,{4}5,
{16}1,,,2,,,{8}3h[8:3],4,4,{4}4,
{16}7,,,6,,,{8}5h[8:3],,1,{4}1,
{16}2,,,3,,,{8}4h[8:3],,8,{4}8,
{16}7,,,6,,,{8}5h[8:3],,1,{4}1,
2h[8:1]/4h[8:1],3h[8:1]/5h[8:1],4h[8:1]/6h[8:1],5h[8:1]/7h[8:1],
8-4[8:1],2,1-5[8:1],7,
6-3[8:1],1,2-7[8:1],5,
6<1[8:1],4,3>8[8:1],5,
7-4[8:1],3,{8}2,2,{4}4/2,
1-5[8:1],7,8-4[8:1],2,
3-6[8:1],8,7-2[8:1],4,
3>8[8:1],5,6<1[8:1],4,
2h[8:1],3h[8:1],4h[8:1],3/5,
7h[8:1],6h[8:1],5h[8:1],6b/4b,
1h[8:1],2h[8:1],3h[8:1],2b/4b,
{8}8,8,2,2,6,6,4,4,
{4}8-4[8:1],1-5[8:1],7-4[8:1],3b,
{16}5/2-5[8:1],,,6,,,{8}7h[8:3],,8,{4}8,
{16}4/7-4[8:1],,,3,,,{8}2h[8:3],,1,{4}1,
{16}8/3-8[8:1],,,7,,,{8}6h[8:3],,5,{4}5,
{16}1/6-1[8:1],,,2,,,{8}3h[8:1],,4/3,{4}4/3,
{16}5/2-5[8:1],,,6,,,{8}7h[4:1],,8,{4}8/7,
{16}4/7-4[8:1],,,3,,,{8}2h[4:1],,1,{4}1/2,
{16}8/3-8[8:1],,,7,,,{8}6h[4:1],,5,{4}5/6,
4h[4:1],3h[4:1],2h[4:1],1,
3/4,5/7,3/4,5/7,
1/2,3/5,{8}2/1,1/2,{4}3b/8b,
6/5,4/2,6/5,4/2,
8/7,6/4,{8}7/8,7/8,{4}6b/1b,
{8}3/5,3,{4}3/5,{8}6/4,6,{4}6/4,
{8}2/4,2,{4}2/4,{8}5b/7b,7,{4}7b/5b,
{8}1,1,7,7,3,3,5,5,
{4}1b,2b,3b,4b,
5h[8:1],6h[8:1],7h[8:1],8h[8:1],
4h[8:1],3h[8:1],2h[8:1],1h[8:1],
7h[8:1],6h[8:1],5h[8:1],4h[8:1],
1h[8:1],2h[8:1],3h[8:1],4h[8:1],
8h[8:1],7h[8:1],6h[8:1],5h[8:1],
2h[8:1],3h[8:1],4h[8:1],5h[8:1],
8h[8:1],7h[8:1],6h[8:1],5h[8:1],
4h[8:1],3h[8:1],2h[8:1],1b,
5h[8:1]/6h[8:1],6h[8:1]/5h[8:1],4h[8:1]/7h[8:1],4h[8:1]/7h[8:1],
8h[8:1]/3h[8:1],8h[8:1]/3h[8:1],1h[8:1]/2h[8:1],2h[8:1]/1h[8:1],
4h[8:1]/3h[8:1],3h[8:1]/4h[8:1],5h[8:1]/2h[8:1],5h[8:1]/2h[8:1],
1h[8:1]/6h[8:1],1h[8:1]/6h[8:1],8h[8:1]/7h[8:1],8b/7b,
2h[8:1]/4h[8:1],2h[8:1]/4h[8:1],3h[8:1]/5h[8:1],3h[8:1]/5h[8:1],
4h[8:1]/6h[8:1],4h[8:1]/6h[8:1],7h[8:1]/5h[8:1],7h[8:1]/5h[8:1],
3h[8:1]/4h[8:1],3h[8:1]/4h[8:1],4h[8:1]/5h[8:1],4h[8:1]/5h[8:1],
{1}5/6pp2[2:1],
{8}3h[1:1]/Cf,,,B6/B5,,B8/B7,,,{1}5-1[4:1],
{8}6h[1:1]/Cf,,,B3/B4,,B1/B2,,,{1}4qq4[2:1],
{8}3h[1:1]/Cf,,,B6/B5,,B8/B7,,,{1}5<8[4:1],
{8}6h[1:1]/Cf,,,B3/B4,,B1/B2,,,{4}1b,
2b,3b,4b,
{1}7pp4[2:1],
2qq5[2:1],
{4}8h[4:3],{8}1,1,,2,{4}2,
1h[4:3],{8}8,8,,7,{4}7b,
{1}3pp8[2:1],
6qq1[2:1],
{4}4h[4:3],{8}5,5,,6,{4}6,
{1}6pp1[2:1]/5qq2[2:1],
3qq8[2:1]/4pp7[2:1],
5pp8[2:1]/4qq1[2:1],
2q5[2:1]/7p4[2:1],
3qq5[2:1]/6pp4[2:1],
Cf/E4/E1/B1/B2/E3/B3/E5/B4/E6/B6/E7/B7/E8/B8/B5/E2,
,1h[1:2],
,3h[1:2],
,5h[1:1],
{4}8,7,{2}6-1[8:1],
2h[4:1]/4h[4:1],2h[4:1]/4h[4:1],
3h[4:1]/5h[4:1],3h[4:1]/5h[4:1],
4h[4:1]/6h[4:1],4h[4:1]/6h[4:1],
7h[4:1]/5h[4:1],7h[4:1]/5h[4:1],
{4}8,8,7,7,
6,6,5,5,
{8}1,1,8,8,2,2,7,7,
3,3,6,6,{2}4w8b[8:1],
{4}2b-5[8:1],1-6[8:1],3-8[8:1],4,
7-4[8:1],7/8,2-5[8:1],2b/1b,
7-4[8:1],8-3[8:1],6-1[8:1],5,
2-5[8:1],2/1,7-4[8:1],7b/8b,
1-3[8:1],8-4[8:1],2-6[8:1],7,
5-7[8:1]/4-8[8:1],5/4,4-2[8:1]/5-1[8:1],4b/5b,
8-6[8:1],1-5[8:1],7-3[8:1],2,
{8}1,1,5,5,3,3,{4}4b/8b,
{8}2-5[8:1],2,6-1[8:1],6,4,4,{4}3/8,
{8}7-4[8:1],7,3-8[8:1],3,5,5,{4}6b/1b,
{8}3-8[8:1],3,7-4[8:1],7,1,1,{4}2/5,
{8}6-1[8:1],6,2-5[8:1],2,8,8,{4}7b/4b,
{8}2-5[8:1],2,6-1[8:1],6,4,4,{4}3/8,
{8}7-4[8:1],7,3-8[8:1],3,5,5,{4}6b/1b,
{8}4x/5x,4x/5x,3x/6x,3x/6x,2x/7x,2x/7x,8x/1x,8x/1x,
{4}2bx-6[8:1],8b-4[8:1],1b-5[8:1],7b-3[8:1],
{1}Cf/2bw6b[4:7],
E
&lv_5=14+
&des_5=WYBXXJ
&inote_5=
(202){4},{16},,,,,,,,,,,,1h[16:3],
,,3h[16:3],,,{8}5h[4:1],,7,{16}6,5,6,5,
8h[16:3],,,6h[16:3],,,{8}4h[4:1],,2,{16}3,4,3,4,
1h[16:3],,,3h[16:3],,,{8}5h[4:1],,7,{16}6,5,6,5,
8h[16:3],,,6h[16:3],,,{8}4,4/3,4/3,{4}2/4,
{16}1h[16:3],,,7h[16:3],,,{8}5h[4:1],,8,{16}6,5,6,5,
8h[16:3],,,2h[16:3],,,{8}4h[4:1],,1,{16}3,4,3,4,
1h[16:3],,,7h[16:3],,,{8}5h[4:1],,8,{16}6,5,6,5,
{8}7,7,{16}3,3,,5,{8}5-1[8:1],4,3,2,
7<5[8:1],1,7-3[8:1],2,7V51[8:1],1,{4}7,
{8}2>4[8:1],8,2-6[8:1],7,2V48[8:1],8,{4}2b,
{8}7<5[8:1],1,7-3[8:1],2,7V51[8:1],1,{4}7,
{8}2,{16}3,4,,6,{8}5,7-3[8:1],7,{4}7b/8b,
{8}1>4[8:1],8,1-6[8:1],7,1,5,{24}1,2,3,4/6,,,{8}8<5[8:1],
1,8-3[8:1],2,8,4,{24}8b,7,6,5/3,,,{8}1>4[8:1],
8,1-6[8:1],7,1,5,{24}1,2,3,4/6,,,{8}5,
5,{16}3,4,,2,{8}1-5[8:1],8,{4}7b,
{8}6,5,{16}3,4,,2,{8}1-5[8:1],8,{4}7b,
{8}6,5,{16}3,4,,2,{8}1-5[8:1],8,{4}7b,
{8}6,5b/4b,3,4b/5b,6,8b/7b,3,2b/1b,
{32}3,4,5,6,7,8,1,2,3,4,5,6,7,8,1,2,3,4,5,6,7,8,1,2,{4}3b/7b,
{16}2b-4[16:1],,,8-6[16:1],,,{8}5-1[8:1],,5,{16}8,7,6,5,
4-8[16:1],,,1-5[16:1],,,{8}7-3[8:1],,7,{16}1b,8,7,6,
5-3[16:1],,,7-1[16:1],,,{8}2-6[8:1],,2,{16}8,1,2,3,
4-6[16:1],,,2-4[16:1],,,{8}8,7,7,{4}6b/8b,
{16}5-7[16:1],,,3-1[16:1],,,{8}8-4[8:1],,8,{16}1,2,3,4,
5-1[16:1],,,7-3[16:1],,,{8}2-6[8:1],,2,{16}8b,1,2,3,
4-6[16:1],,,2-8[16:1],,,{8}7-3[8:1],,7,{16}1,8,7,6,
{8}5/8,8,{16}3,4,,2,{8}1-5[8:1],8,7,6,
4-8[8:1],4,5-1[8:1],5,2-6[8:1],2,{4}8,
{8}7<4[8:1],7,3>8[8:1],3,6-2[8:1],6,{4}4b,
{8}3v5[8:1],3,6V82[8:1],6,4-8[8:1],4,{4}5,
{8}7p3[8:1],7,1q5[8:1],1,6-1[8:1],6,{4}2b,
{8}3>8[8:1],3,5q2[8:1],5,4p7[8:1],4,{4}6,
{8}5-1[8:1],5,2>5[8:1],2,8<5[8:1],8,{4}1b,
{8}4v5[8:1],4,6q3[8:1],6,2<7[8:1],2,{4}4,
5b-1[8:1],5b<8[8:1]*>2[8:1],5bw1[8:1],5b,
{8}7,6/5,{16}4,5,{8}4,3h[8:1],{16}5,2h[8:1],,4,{8}1,
6h[8:1],{16}4,7h[8:1],,5,{8}8,3h[8:1],{16}5,2h[8:1],,4,{8}1,
5,3/4,{16}5,4,{8}5,6h[8:1],{16}4,7h[8:1],,5,{8}8,
1h[8:1],{16}4,2h[8:1],,5,{8}3,6h[8:1],{16}4,7h[8:1],,5,{8}8,
3,4/5,{16}2,1,{8}2,8h[8:1],{16}5,7h[8:1],,4,{8}6,
3h[8:1],{16}5,2h[8:1],,4,{8}1,6h[8:1],{16}4,7h[8:1],,5,{8}8,
3,5/4,{16}7,8,{8}7,1h[8:1],{16}4,2h[8:1],,5,{8}3,
6h[8:1],{16}4,7h[8:1],,5,{8}8,3h[8:1],5,{4}2b/6b,
{8}3-8[8:1],4-7[8:1],3,4,2-5[8:1],1-6[8:1],2,1,
3-8[8:1],4-7[8:1],3,4,2-5[8:1],1,2/8,7,
6-1[8:1],5-2[8:1],6,5,7-4[8:1],8-3[8:1],7,8,
6-1[8:1],5-2[8:1],6,5,7-4[8:1],8,{4}7b/1b,
{8}2-4[8:1],5,2-8[8:1],6,2-4[8:1],7,2-8[8:1],6,
2-4[8:1],5,2-8[8:1],6,2-6[8:1],7,2,8,
7-5[8:1],4,7-1[8:1],3,7-5[8:1],2,7,3,
{16}4h,,,4h,,,{8}4h,2/6,2/6,{4}2/6,
{8}1b<6[8:1],,,5b-1[8:1],,2b>5[8:1],,,{4}8h[1:1],
,,6,
{8}5bV38[8:1],,,7b-4[8:1],,1bs5[8:1],,,6b<3[4:1],
,,4bv5[8:1],,,,,7b<4[8:1],
,,3b-7[8:1],,8b>3[8:1],,,{4}4h[1:1],
,,2,
{8}1bV75[8:1],,,4bv2[8:1],,5b<8[8:1],,,{4}1b,
2b,3b,4b,
{16}8<5[8:1],,,5q1[8:1],,,{8}2h[8:3],,4,{4}4,
{16}1>4[8:1],,,4p7[8:1],,,{8}6h[8:3],,5,{4}5b,
{8}7-4[8:1],3-8[8:1],7,3,5-1[8:1],5,{4}4/5,
{8}2-5[8:1],6-1[8:1],2,6,4-8[8:1],4,{4}5b/4b,
{16}7>3[8:1],,,3p6[8:1],,,{8}4h[4:1],,5,{4}5/4,
{16}1-5[8:1],,,5>2[8:1],,,{8}7h[4:1],,8,{4}7b/8b,
{8}6-1[8:1],5-2[8:1],6,5,7-4[8:1],8,{4}7,
{8}2,2,{16}3,4,,4,{8}2-5[8:1],1,{4}2/8,
{8}7,7,{16}6,5,,5,{8}7-4[8:1],8,{4}7/1,
{8}2,2,{16}3,4,,4,{8}2-5[8:1],1,{4}2/8,
{32}8,7,6,5,4x,3,2,1,8,7,6,5,4x,3,2,1,8,7,6,5,4x,3,2,1,8,7,6,5,4x,3,2,1,
8/3bx,4,5,6,7,8,1,2,3bx,4,5,6,7,8,1,2,3bx-7b[8:1],4,5,6,7,8,1,2,,,,,,,,,{4}1/8h[4:7],
2,3,1,
2,3,1,2,
1/7h[4:7],2,4,1,
2,4,2,1,
4/6h[4:7],8,2,4,
2,4,3,2,
1/5h[1:1],4,2,8,
1>4[8:1],1<6[8:1],1-5[8:1],1,
8-4[8:1],5-2[8:1],7,8-4[8:1],
5-2[8:1],7,8-4[8:1]*-3[8:1],8,
1-5[8:1],4-7[8:1],2,1-5[8:1],
4-7[8:1],2,1-5[8:1]*-6[8:1],1,
{8}2,2,3h[16:1],3h[16:1],4,4,5,5,
6,6,7h[16:1],7h[16:1],8,8,1,1,
2/4,2/4,3/5,5/3,4/6,4/6,5/7,7/5,
{16}4,8,4,8,3,7,3,7,{32}2,1,8,7,6,5,4,3,{4}2b/6b,
1b-7[8:1],1/5-1[8:1],5/3-5[8:1],3/7-3[8:1],
7/1-7[8:1],1/5-1[8:1],4-8[8:1]/5-7[8:1],4b/5b/Cf,
3-5[8:1],3/7-3[8:1],7/1-7[8:1],1/5-1[8:1],
5/3-5[8:1],3/7-3[8:1],8-4[8:1]/7-5[8:1],8b/7b/Cf,
2-8[8:1],2/6-2[8:1],6/4-6[8:1],4/8-4[8:1],
8/2-8[8:1],2/6-2[8:1],6-8[8:1]/5-1[8:1],5b/6b/Cf,
4-6[8:1],4/8-4[8:1],8/2-8[8:1],2/6-2[8:1],
{8}4-6[8:1],4,8-4[8:1],8,1-5[8:1],1,{4}7b/Cf,
{8}8x-3[8:1]/3-8[8:1],3/8x-5[8:1],,,4>1[8:1]*<7[8:1],4,{4}4,
{8}1x-6[8:1]/6-1[8:1],6/1x-4[8:1],,,5<8[8:1]*>2[8:1],5,{4}5b,
{8}8x-3[8:1]/3-8[8:1],3/8x-5[8:1],,,4>1[8:1]*<7[8:1],4,{4}4,
{8}1x-6[8:1]/6-1[8:1],6/1x-4[8:1],,,5<8[8:1]*>2[8:1],5,{4}5b,
{8}3-8[8:1],3,{16}7,7h[16:3],,5,{8}5-1[8:1],4,{4}3/5,
{8}6-1[8:1],6,{16}2,2h[16:3],,4,{8}4-8[8:1],5,{4}6b/4b,
{16}1h[32:1],8h[32:1],1h[32:1],8h[32:1],1h[32:1],8h[32:1],1h[32:1],8h[32:1],1h[32:1],8h[32:1],1h[32:1],8h[32:1],1h[32:1],8h[32:1],1h[32:1],8h[32:1],
{24}1b,8,7,6,5,4,1b,8,7,6,5,4,8b,1,2,3,4,5,8b,1,2,3,4,5,
{4}1b-5b[4:7],E1,E2,E8,
E3,E7,E4,E6,
{1}E5,
E
