&title=冥界帰航
&artist=ZUN(arr:sun3)
&first=0
&des=moon4 affected by "冥"
&lv_5=14+
&inote_5=(200){4},{8}
,,,,,,4/5,
,,6,,,{4}3,
{8}4/5,,,6,,,{4}7,
{8}8,7,6,8,{4}6,7,
{8}3,,,1,,,{4}6,
{8}5/4,,,3
,,,{4}6,
{8}5/4,,,3,,,{4}2,
{8}1,2,{4}3,3,2,
1>7[2:1],6,{8},,,,6,
8/7,5/4,{16}6,3,6,3,{8}6,4,5,
3,1/2,4/5,{16}3,6,3,6,{8}3,5,4,
6,8/7,1,{16}7,2,7,2,{8}7,1,8,
{16}2,7,2,6,2,5,2,4,2,5,2,6,{4}2,
{8}7,5/6,8/1,{16}7,2,7,2,{8}7,1,8,
2,4/3,1/8,{16}2,7,2,7,{8}2,8,1,
7,5/6,3,{16}6,3,6,3,{8}6,4,5,
{16}3,6,3,6,3,6,3,6,3,6,3,6,{4}3b,
,4-7[8:1],{8}7,8-3[8:1],,6,
5,4,{4}3-8[8:1],{8}8,7-4[8:1],,4,
3,2,{4}1-6[8:1],{8}6,5-2[8:1],,7,
8,1,{4}2-5[8:1],{8}5,6-1[8:1],,1,
2,3,{4}4v7[8:1],{8}7,8v3[8:1],,6,
5,4,{4}3v8[8:1],{8}8,7v4[8:1],,4,
3,2,{4}1v6[8:1],{8}6,5v2[8:1],,7,
8,1,{4}2v5[8:1],{8}5,6v1[8:1],,1,
2,3,{4}4-8[8:1],{8}8,7-5[8:1],,1,
2,3,{4}4-8[8:1],{8}5,6-1[8:1],,1,
2,3,{4}4-8[8:1],{8}8,7-5[8:1],,1,
2,3,{4}4/5-8[8:1],{8}4,4-1[8:1],,8,
7,6,{4}5-1[8:1],{8}1,2-4[8:1],,8,
7,6,{4}5-1[8:1],{8}4,3-8[8:1],,8,
7,6,{4}5-1[8:1],{8}1,2-4[8:1],,8,
7,6,{4}5/4,7/4>8[4:1],{16}8/4,7,6,5,
{4}4,{16}1,8,1,8,2,7,2,7,1,2,3,4,
8,7,6,5,2,1,2,1,3,8,3,8,2,3,4,5,
1,8,7,6,1,5,2,6,3,7,4,8,5,4,3,2,
8,7,6,5,8,7,1,6,2,5,3,4,3,2,1,8,
4,5,6,7,1,2,3,4,1,2,3,4,5,6,7,8,
4,3,2,1,6,7,8,1,6,7,8,1,2,3,4,5,
1,8,7,6,1,2,3,4,1,2,3,4,5,6,7,8,
4,3,2,1,4,5,6,7,4,5,6,7,8,1,2,3,
8,7,6,5,1/4h,2,3,4,5/8h,6,7,8,1,2,3,4,
5/8h,6,7,8,1/4h,2,3,4,5/8h,6,7,8,1,2,3/8h,4,
{4}5/8h,{16}8/5h,7,6,5,4/1h,3,2,1,8,7,6,5,
4/1h,3,2,1,8/5h,7,6,5,4/1h,3,2,1,8,7,{8}6/1h,
2h,7h,{16}3,6,3,6,2,7,2,7,3,8,2,1,
3,8,2,1,4,7,4,7,5,6,5,6,4,7,5,6,
4,7,5,6,4,5,4,5,3,6,3,6,4,7,3,6,
2,5,1,4,5/2,3/6,4/7,5,6,7,8,1,5/2,3/6,{8}4/7,
{32}7,6,5,4,3,2,1,8,(100){16}7b,5,4,5,6,5,4,5,4,5,6,3,
4,5,6,3,6,5,4,5,6,5,4,5,4,5,6,4,
3,5,6,4,6,5,4,5,6,5,4,5,4,5,6,3,
4,5,6,3,6,5,4,5,6,5,4,5,4,5,6,4,
3,5,6,4,(110){8}7b/3>1[2:1],{16}3,3,,5,{8}5,{16}4,,,6,
,,2,2,(120)7b/1>4[2:1],7,2,2,,5,{8}5,{16}6,6,,7,
,6,{8}6,(130)7b/4>1[2:1],{16}3,3,,5,{8}5,{16}6,,,7,
,8,8,8,(140)7b/1>4[2:1],7,2,2,,5,{8}5,{16}6,6,,7,
,6,6,6,(150){4}7b/4>2[8:1],{16}8/4,7,{8}6,{4}7b/2>4[8:1],
{16}8/2,7,{8}6,(160){4}7b/4>1[8:1],{24}4/8,7,6,5,,,{4}7b/1>4[8:1],
{24}1/8,7,6,5,,,(170){8}7b/4,7b,{16}4,3,{8}7b/2,7b,7b,
{16}2,3,{8}7b/4,(180){4}7b/4-2[8:1],7b/4,7b/2-4[8:1],
7b/2,(190){8}7b/4,7b/3,7b/2,7b/1,7b/4,7b/3,
7b/2,7b/1,(200){16}7,1,7,2,7,3,{8}7,{16}6,1,6,2,
6,3,{8}6,{24}6/4,7,8,1,2,3,4/6,7,8,1,2,3,4/6,7,8,1,2,3,
6/4,7,8,1,2,3,{4}4/6h[4:1],{24}5,4,3,2,1,8,{4}7>2[8:1]/4-8[8:1],
,3h[4:1],{24}4,5,6,7,8,1,{4}2<7[8:1]/5-1[8:1],
{8},,6h[8:1],1,5h[8:1],2,{16}3,5,{8}3,
{16}6,4,{8}6,3h[8:1],{24}7,6,5,{8}2h[8:1],{24}7,6,5,{32}2,3,4,5,6,7,8,1,
{4}2b,{16}8/3,7,6,5,3/4-8[16:3],2,1,8,{4}4/7>2[16:3],
{16},,,,8,7,6,5,3/4-8[16:3],2,1,8,{4}4/7>2[8:1],
{24},,,,,,8,7,6,4,3,2,8,7,6,4,3,2,7,6,5,3,2,1,
7,6,5,3,2,1,{8}8h[8:1],{24}1,2,3,{8}7h[8:1],{24}1,2,3,{32}7,6,5,4,3,2,1,8,
{4}7b,5/3h[4:1],{24}4,5,6,7,8,1,{4}2<7[8:1]/5-1[8:1],
5,6h[4:1],{24}5,4,3,2,1,8,{4}7>2[8:1]/4-8[8:1],
4,{8}3h[8:1],8,4h[8:1],7,{16}6,4,{8}5,
{16}3,5,{8}4,7h[8:1],{24}3,4,5,{8}7h[8:1],{24}4,3,2,{32}7,6,5,4,3,2,1,8,
{4}7b,{16}1/6,2,3,4,6/5-1[16:3],7,8,1,{4}5/2<7[16:3],
{16},,,,1,2,3,4,6/5-1[16:3],7,8,1,{4}5/2<7[16:3],
{24},,,,,,2,3,4,8,7,6,2,3,4,8,7,6,1,2,3,7,6,5,
1,2,3,7,6,5,1,2,3,4/5,6,7,1,2,3,4/5,6,7,2,3,4,5/6,7,8,
2,3,4,5/6,7,8,{16}2,3,4,5,8,7,6,5,1/4,2,3,4,
5/6,4,3,2,1/7,6,5,4,1,2,3,4,8/5,7,6,5,
4/3,5,6,7,8/2,3,4,5,8,7,6,5,1/4,2,3,4,
5/6,4,3,2,{8}1h[8:3],{24}7,6,5,,,,6,7,8,{32}2,3,4,5,6,7,8,1,
{4}2b,{16}8/1,7,6,5,4/2,5,6,7,8/3,7,6,5,
4/2,5,6,7,8/1,2,3,4,8/5,4,3,2,1/7,2,3,4,
5/6,4,3,2,1/7,6,5,4,1,2,3,4,8/5,7,6,5,
4/3,5,6,7,{24}8b/2b,3,{6}4,{24}7,,,2b,3,4,{32}7,6,5,4,3,2,1,8,
{4}7b/3,{16}2,3,4,5,8,7,6,5,1/4,2,3,4,
5/1,4/8,3/7,2/6,1,8,7,6,8,7,6,5,1/4,2,3,4,
5/6,4,3,2,1/7,6,5,4,1,2,3,4,8/5,7,6,5,
4/1,5/2,6/3,7/4,{8}8h[8:3],{24}3,4,5,,,,4,3,2,{32}7,6,5,4,3,2,1,8,
{4}7b,{16}7,6,5,4,1,2,3,4,8/5,7,6,5,
4/8,5/1,6/2,7/3,8,1,2,3,1,2,3,4,8/5,7,6,5,
4/1,5/2,6/3,7/4,5,8,4,7,3,6,2,5,4,7,3,6,
2,5,{8}1,{16}4/8>7[16:7],5/1>8[16:7],6/2>1[16:7],7/3<2[16:7],{4}8/4<3[16:7],{16}8,1,2,3,
4,5,6,7,{4}8h[1:4],
E
