&title=Sdorica "the Story Unfolds"
&artist=Hoskey; RayRay
&first=0
&des=青龙 vs.朱雀 vs.玄武 vs.白虎
&clock_count=4
&lv_5=13+
&des_5=
&inote_5=(180)
{1},,
||1
{16}3h[4:2]/5h[4:2],,,,,,,,,,,,
{16}E2,,,,E3,,,,E4,,,,
{16}2h[4:2]/5h[8:4],,,,,,,,,,,,
{16}E3,,,,E4,,,,E5,,,,
{16}2/7h[4:3],,,,,,,,5,,,,
{16}5<3[1:1],,,,,,,,4,,,,
{16}4h[4:3],,,,,,,,,,,,
{16}A3,,,,C,,,,A7,,,,
{16}6h[4:2]/4h[4:2],,,,,,,,,,,,
{16}E8,,,,E7,,,,E6,,,,
{16}7h[4:2]/4h[8:4],,,,,,,,,,,,
{16}E7,,,,E6,,,,E5,,,,
{16}2-8[4:1]/7,,,,4,,,,4,,,,
{16}6-4[4:1]/3,,,,8,,,,8,,,,
{16}2h[4:5]/4,,,,,,,,,,4,5,
{16}6h[2:1],,,,,,,,,,,,
{16}8<5[4:1],,,,5^2[4:1],,,,2,,,,
{16}1h[4:1],,,,7h[4:1],,,,5,,,,
{16}2>5[4:1],,,,5^8[4:1],,,,8,,,,
{16}1h[4:1],,,,3h[4:1],,,,5,,,,
{16}1/5qq6[2:1],,,,,,,,1,,,,
{16}1qq2b[2:1],,,,,,,,5,,,,
{16}5,,,,64,,,,73,,,,
{16}4,,,,35,,,,26,,,,
{16}1>4[4:1],,,,4^7[4:1],,,,7,,,,
{16}8h[4:1],,,,2h[4:1],,,,4,,,,
{16}7<4[4:1],,,,4^1[4:1],,,,1,,,,
{16}8h[4:1],,,,6h[4:1],,,,4,,,,
{16}7/3pp6[2:1],,,,,,,,1,,,,
{16}7pp2b[2:1],,,,,,,,3,,,,
{16}1x<2[2:1],,,,,,,,,,{24}1x,8x,7x,
{16}6xb,,,,{12}3,4,2,6,5,7,
||2
{16}4x<8[4:1],,4x,,3,,3,,2,,,,
{16}3<7[4:1],,3,,2,,2,,1,,,,
{16}6b/8h[4:1],,,,5-8[8:1],,1,,3,,,,
{16}7/1h[4:1],,,,5h[4:1],,,,3qq7qq6[4:5],,,,
{16}7h[4:3],,,,,,,,,,,,
{16},,,,,,,,7qq6b[8:3],,,,
{16}1h[4:3],,,,,,,,,,4,,
{16}4,,,,35,,,,26,,,,
{16}8>4[4:1],,8,,7,,7,,6,,,,
{16}1>5[4:1],,1,,8,,8,,7,,,,
{16}6b/4h[4:1],,,,8-5[8:1],,4,,2,,,,
{16}1V38[4:1]/4,,,,8-3-5[4:1],,,,5,,,,
{16}6,7,8,1,4p7[8:1],,,,8h[4:1],,,,
{16}E6,E5,E4,E3,8x^5[8:1],,,,3,,,,
{16}3,2,1,8,5q2[8:1],,,,1h[4:1],,,,
{16}E3,E4,E5,E6,E7,E8,E1,E2,4x,,,,
||3
{16}5bx-8[8:1],,,,2,,3,,4-1b[8:1],,,,
{16}24,,,,3h[8:2],,,,1,,3,,
{16}4V28[4:1],,,,8V64[4:1],,,,4,,,,
{16}1h[4:1],,,,2-6[8:1],,1,,7,,,,
{16}4bx-1[8:1],,,,7,,6,,5-8b[8:1],,,,
{16}7V51[4:1]/5,,,,1-6-3[4:1],,,,2,,,,
{16}1pp2[4:1],,,,7,,5,,,,8,,
{16}6-3[8:1]/2-7[8:1],,,,26,,,,1b,,,,
{16}2/5pp6[4:1],,,,4,,2,,,,3,,
{16}6-3[8:1]/2-7[8:1],,,,26,,,,15,,,,
{16}3>6[4:1]/7,,,,4,,5h[4:1],,,,4x,,
{16}5-7[8:1]/3-5[8:1],,,,3/5-1b[8:1],,,,8x,,8,,
{12}2,3,4,51,8,7,61,2,3,
{16}6-1[8:1]/4x-1[8:1],,,,46,,,,3bp5[8:10]/7b,,3b/7bp1[8:9],,
{16},,,,,,,,,,,,
{16},,,,,,,,,,,,
||4
{24}2b,4,2,{16}4-8[8:1],,,,34,,3^6[8:1],,,,
{16}37,,,,8,2,8,,37,,2,,
{16}5,6,7^5[8:1],8,,,4,3,2^4[8:1],1,,,
{16}5,6,7,8,1,2,3,4,8b,,,,
{32}E7hf[8:3]/B7h[8:3]/B6h[8:3]/E2f,E3,E4,E5,{16},,,,{32}A1,A2,A3,A4,{16},,,,
{16}8x^3[8:1],,,,8^5b[8:1],,,,8,,,,
{32}E4hf[8:3]/B3h[8:3]/B4h[8:3]/E1f,E8,E7,E6,{16},,,,{32}A1,A8,A7,A6,{16},,,,
{16}8x^3[8:1]*^5[8:1],,,,8,,,,26,,26,,
{24}7b,5,7,{16}5-1[8:1],,,,65,,6^3[8:1],,,,
{16}62,,,,1,7,1,,62,,7,,
{16}4,3,2^4[8:1],1,,,5,6,7^5[8:1],8,,,
{16}4,3,2,1,8-4b[8:1],7,6,5,8x/4x,,,,
{16}26,,3,4,3,,17,,2>5[8:1]/6^1[8:1],,,,
{16}2xp6[8:1]/6xp2[8:1],,,,6x/2x,,,,1xb,,,,
{32}E6hf[8:3]/B6h[8:3]/B5h[8:3]/E1f,E2,E3,E4,{16},,,,{32}A8,A1,A2,A3,{16},,,,
{16}7,3,7,3,8,2,8,2,1^4[8:1],,,,
||5
{24}8b,7,6,{16}5,,12,,3-7[8:1]/7,,,,34,,
{16}5-2[8:1],,,,5-8[8:1]/6,,,,1^4b[8:1]/5,,,,
{48}D8f,A7,D7,A6,D6,,{16},,12,,3/7-3[8:1],,,,78,,
{16}2-7[8:1],,,,6-3[8:1]/2,,,,68,,,,
{16}25,,3,4,3,,16,,2,5,2,,
{16}7^4[8:1]/8^3[8:1],,,,7b/8b,,,,5,,{24}1,2,3,
{16}7b/4b,,6,5,6,,83,,7,4,7,,2^5[8:1]/1^6[8:1],,,,
{16}1b/2b,,,,{32}7,8,1,2,3,4,5,6,
{16}3b/7x,,,,87,,6-2[8:1]/2,,,,65,,
{16}4-7[8:1],,,,4-1[8:1]/3,,,,8^5b[8:1]/4,,,,
{48}D2f,A2,D3,A3,D4,,{16},,87,,6/2-6[8:1],,,,21,,
{16}8w4[8:1],,,,8,,,,2b/6b,,3,4,
{16}3,,15,,37,,{24}1,2,3,{16}4,,6,5,
{16}6,,48,,26,,{24}8,7,6,{16}5,,{24}8,1,2,
{16}3b-5[16:2],,,,7b-4[16:2],,,,2b-6[16:2],,,,
{16}5b-7[16:2],,,,4b-1[16:2],,,,6b,,,,
{16}3x/7x,,2,1,3,,7,8,6,,2,4,
{16}3,5,4,6,5,7,1,8,{32}2,3,4,5,6,7,8,1,2b-8-4-6[4:3]/6,,,,,,,,
{16},,,,,,,,,,,,,,
(56)
{48},,,,
(50)
{48}2qq7[16:5],,,,,,
(44)
{48},,,{96}E6,E5,
(47.8)
{48}E4,,,,,,,,,,,,
(28)
{48},{192}D6,A5,D5,A4,
(29)
{48}D4,,,,
(20)
{48}B4h[80:27],,
(15)
{64}B5h[99:22],,,,,,
(24)
{64}8-5^4-1b[18#8:3],,,,,,,,
E
