&title=超主人公
&artist=ピノキオピー
&first=-0.355
&des=芋圆 respect for 初代谱师组
&des_5=芋圆 respect for 初代谱师组
&lv_5=13.9
&inote_5=(155){4},
,,,,5,
,5/4,
,5,,5b/4b,
,5,,5h[2:1]/4h[1:1],
,,,,,4,
,5/4,
,4w8[1.3548##2.129],,5b/4b,
{8},,,,,,,,,,,,,,,,,8,
6,5,3/2,1,{16}8>3[8:1],7,{8}8,
,6,5,7,,6/7z3[8:1],{4}8,
{8},8<6[2:1]*>2v4[2:1],,,,,,,,1<7[2:1]*>3v5[2:1],
,,,,,,,4,
2,1,7/6,5q1[8:1],{16}4,3,,,,,4,
3,{4}2,{8}8<4[4:1],4>8[4:1],,,,,,,,,,,{1}4b,
{4}4b,{8}6/5,7/4,{16}8,2,1,3,{8}6/5,{16}7,5,
6,4,,,{8}3,3/5,3,3/1,{16}3,,,3/6,
7/2,1/8,,,{4}8b-4[1.1613##1.1613],,,,2b-6[0.7742##0.5806],
{8}
,,,,,,6,
6/3,6,6/2,6,1/6h[4:1],
8,7,{16}8b,5,1,6,2b,7,4,8,1b,5,{8}7/3,
{16}1/5,8/4,,,{4}7bpp2[2:1]/2b<7[2:1],,,,6h[4:3]/2h[4:3],
{8},,,,,,4/3b-8[8:1],
1/8b-5[8:1],,,,2/4,
6,5/7,1,1/2,8,8/7,2,1/3,
,,5/6b-1[8:1],8/1b-4[8:1],,,,7/5,
3,4/2,8,8/7,1,1/2,7,8/6,
{4}2,{8}7b-4[8:1],2b-8[8:1],,,3b>1[8:1],4,
5,7,8b<6[8:1],1,2,3,4b>2[8:1],5,
6,7,2-5[8:1],7-1[8:1],,,{4}6b<2v4b[2:1],
{8},,,,,,,,,,3/2,
2/1,{16}1/8,,,7-4[8:1],,6,{8}5,
,,6/7,7/8,{16}8/1,,,2-5[8:1],,3,{8}4,
,,{4}6V82[4:1],2V46[4:1],6-8>1[4:1],
1-3<4[4:1]
,4-7>8[4:1],{2}8w4[8:3],
{8},,1h/8h,2h/3h,{16}4h/5h,,,6-8-2[16:3],,5h,{8}4h,
,,8h/1h,7h/6h,{16}5h/4h,,,3-1-7[16:3],,4h,{8}5h,
,,2>4[8:1],1,2/7<5[8:1],8,7/2>4[8:1],1,
{4}2/7h[8:5],6h[8:3],{24},,,,,8-2-7[24:5]*-2-7[24:5]`5-3-6[24:5],1/4,2/3,,,,,,,,,,,{4}5h[4:5]/2>8[1:1],
{8},,,,,,,,,,,,,,4,
5,4,5,{4}4b,
4/5,{8}5,4,5,4,{4}5b,
{8},,3,6,3,6,{4}3b,
{1}8/1,
{8},,5,4,5,4,{4}5b,
5/4,{8}4,5,4,5,{4}4b,
{8},,6,3,6,3,6,3,
{1}1/8,
{8},,5,6/7,,5,{4}7/8,
{8}5,6/5,,1-6[0.5807##0.1935],1-4[0.5806##0.1936],7/3,,,,,5-1[1.1613##0.1936],
8,3z7[0.9677##0.5807],8,,,5,
3,,,,,,,8,
7<4[8:1],6/1,7/8,,3,{4}1/2,
{8}2,3/4,{16},,6,6,4,5,{8}3,2,1,
8/6,7/5,{16}4,3,4,8,7,6,5,4,,,,,{1}8-4[16:1],
{8},,3b-1[8:1]/4b-8[8:1],1/8b-6[8:1],,,,2,
2,1/3,7-4[8:1],6,7/3-8[8:1],2,3/7<4[8:1],1,
{4}7,{8}6b-8[8:1]/5b-1[8:1],8/1b-3[8:1],,,,7,
7,8/6,3-8[8:1],2,3/7-4[8:1],6,7/3>8[8:1],5,
{4}3,{8}2b-4[8:1]/1b-5[8:1],4/5b-7[8:1],,,,3,
3,4/2,7-4[8:1],6,7/3-8[8:1],2,3/7<4[8:1],1,
{4}7,{8}8-2[0.1936##0.1936]/4-7[0.1936##0.1936],8/4,,,1/5,{16}2/6,3/7,
{8}4,8b,,,,,,,,,6h[12:1]/4h[12:1],
8h[12:1]/1h[12:1],{16}5h[16:3]/3h[16:3],,,,,4q8[0.2903##0.1936]/5<7[0.2903##0.1936],,,{4}5b/4b,
{8}3h[12:1]/5h[12:1],1h[12:1]/8h[12:1],{16}4h[16:3]/6h[16:3],,,,,5p1[0.2903##0.1936]/4>2[0.2903##0.1936],,,{4}4b/5b,
{8}7>3[4:1],8,3<7[4:1],4,7>3[4:1],8,
3w7[4:3],5,,,,,,,,,7h[12:1]/1h[12:1],
5h[12:1]/4h[12:1],{16}8h[16:3]/2h[16:3],,,,,8<5[0.2903##0.1936]/1p4[0.2903##0.1936],,,{4}8b/1b,
{8}2h[12:1]/8h[12:1],4h[12:1]/5h[12:1],{16}1h[16:3]/7h[16:3],,,,,1>4[0.2903##0.1936]/8q5[0.2903##0.1936],,,{4}1b/8b,
{8}1-5[8:1],2,7<4[8:1],6,2-6[8:1],1,
8<5[8:1],1,2>5[8:1],1,8-4[8:1],7,3>8[8:1],5,
{4}3,{8}8-4[8:1],7,2>5[8:1],3,7-3[8:1],8,
1>4[8:1],8,7<4[8:1],8,1-5[8:1],2,6<2v4[4:5],4,
,,{4}4b,{8},,,,,,,,,,,,,,6/2,
7/3,{16}2/6,,,6/2,,1/5,{8}8/4,
{4}6/2,{8}6/2,7/3,{16}2/6,,,6/2,,1/5,{8}8/4,
{4}6/2,6/5,5/4,{16}4/3,,,2,
,,{8}1/2,{4}3/4,4/5,{16}5/6,,,7,
,,{8}8/7,8,6/1,,1/2,{4}8/3,
{8}8/1,6/3,,6h[8:11]/2h[8:13],,,,,,,,,,,,,,,1bh/8bh,
2bh/3bh,{16}4bh/5bh,,,6-8-2b[16:3],,5bh,{8}4bh,
,,4bh/5bh,3bh/2bh,{16}1bh/8bh,,,7-5-3b[16:3],,8bh,{8}1bh,
,,4-8[8:1],3,6<1[8:1],7,3-7[8:1],4,
5<8[8:1],4,3>8[8:1],4,5-1[8:1],6,2>5[8:1],8,
{4}2,{8}1bh/8bh,2bh/3bh,{16}4bh/5bh,,,6z2b[8:1],,7bh,{8}8bh,
,,8bh/1bh,7bh/6bh,{16}5bh/4bh,,,3s7b[8:1],,2bh,{8}1bh,
,,5b-1[8:1],6,3b>8[8:1],2,6b-2[8:1],5,
4b>1[8:1],5,6b<1[8:1],5,4b-8[8:1],3,7b<4[8:1],1,
{4}7,{8}5/2,{16}3,4,{8}3,5,4/7,{16}6,5,
{8}6,1,1/2,{16}8,3,{8}7,4,5/4,{16}6,3,
{8}7,1,8/2,{16}1,7,{8}3,5,6/4,{16}5,3,
{8}7,2,1/8,{16}7,8,{8}6,4,5/4,{16}3,4,
{8}2,7,8/7,{16}2,5,{8}8,3,3/4,{16}6,3,
{8}1h[4:3],5h[8:7],,,,,,,,,5-3[8:1],
5,1-7[8:1],1,{4}6b-2[0.2903##0.1935],
{8},,4-6[8:1],4,8-2[8:1],8,{4}3b-7[0.2903##0.1935],
{8},,4-2[8:1],4,5-1[8:1],5,{4}7bs3[0.2903##0.1935],
{8},,5-7[8:1],5,4-8[8:1],4,{4}2z6[0.2903##0.1935],
{8},,4-2[8:1],3,5-1[8:1],6,{4}7bs3[0.2903##0.1935],
7b,{8}8-6[8:1],7,1-5[8:1],2,{4}3bs7[0.2903##0.1935],
,4<6[8:5]*>2v8[8:5],,,,8/1,
7/2,{8}3/7,2/6,
{16}1/5,4/8,7/3,6/2,{8}1-7[8:1],1,5-3[8:1],5,{4}2b-6[0.2903##0.1936],
{8},,8-2[8:1],8,4-6[8:1],4,{4}7b-3[0.2903##0.1936],
{8},,1-3[8:1],1,5-7[8:1],5,{4}8b-4[0.2903##0.1935],
{1}8b/1b,
{4},1-5[4:1],5<8[4:1],8-4[4:1],
4>1[4:1],5h[2:3],
E
