&title=Hill Top Zone
&artist=Masato Nakamura
&first=0
&des=TruffleShroom
&lv_7=宴13
&des_7=TruffleShroom
&demo_seek=9.89
&demo_len=21.9
&inote_7=
(110){4},{24}8x/1h[12:1],8x,8x,,,7h[4:1],,,{12}6h[8:1],{24},,,,2/3,,,8/1?-3-5[1:1],
8,,,,,5,6,7,{12}8,8,,,,7,8h[8:1],,,7,
{24},6b,{12}7h[24:1],6,{24},6,,,{12}6/4h[4:1],{24},6,,,6,,,6,
6,,,,,4,4,5h[24:1],6h[24:1],5h[24:1],6h[24:1],5h[24:1],6h[24:1],7h[24:1],6h[24:1],7h[24:1],8h[24:1],7h[24:1],8h[24:1],1h[24:1],2h[24:1],1h[24:1],2h[24:1],3h[24:1],
2h[24:1],3h[24:1],2h[24:1],3h[24:1],{12}6>3[0##2.2691],{24}7,7,,,{12}7,{24},8,,,7,,,8,,,8/3?V17[1:1],7,
,,{12}1,{24},,,5,{12}4,3,{24},,,,2,3,,4,,,3/7?-5-2[24:23],2,
,,{12}2,,{4}1h[6:1],{24},1,,,1,,,8h[8:1],,2?-8-6[1:1],,7,
,,{12}1,{24},5h[6:1],,,,,,,,,,{8}4,5,{24}4/6?-4-8[1:1],4,,,5b,
,,,7,{8}7,7,{4}8h[8:1],{8}1,{24}2/8?>3[1:1],1,,,1,
,,,,7,7,,{8}6,{24},,,5,5,,{8}4,{24}4/3?<7[1:1],4,,,5,
,,{6}1h[6:1],{24},,,8,,,{12}1,{24},2,,,2,1/7?>1-5[12:11],,,,8,
,,{6}6h[6:1],{12},,,6,{24},6b,,,7b,,,7b,
{8}7b,{24}5,,4/3,,,4/3h[8:1],,,4,,,{12}7<4[6:1]/8p3[6:1],,,{6}8/7,
{12},1<6[6:1]/2p5[6:1],,,1/2,,,7h[8:1]/1?w5[0.7273##2.5455],{24},6,,,,,,,,,{12}5h[8:1],
{24},8h[8:1],,,1h[8:1],,,6h[8:1],,,{12}3h[8:1],,,{6}7/2,
{24},4x,{12}4x,{24},,,4,,,{12}5,{24},7/8,,,8h[8:1],,,6b,,,,,,6h[4:1],
,,{6}5h[8:1],{24},,,,,2/3h[8:1],,,2h[8:1],,,7,,,,,,7h[8:1],
,,5h[8:1],,,8h[8:3],,,,,,5h[8:1],,,,,,5?w1[0.2727##2.0909],,,,,{8}6h[8:1],
7h[8:1],8h[8:1],1h[8:1],{4}2h[8:1],6b/3b,
{24}1h[24:1],4h[24:1],1h[24:1],4h[24:1],1h[24:1],4h[24:1],1h[24:1],4h[24:1],1h[24:1],4h[24:1],1h[24:1],4h[24:1],1h[24:1],4h[24:1],1h[24:1],4h[24:1],1h[24:1],4h[24:1],1h[24:1],4h[24:1],{6}1h[24:1],
E
