&title=スイートサイン
&artist=岬なこ
&first=0
&des=这是楠莉开发的「喝了就超会写谱的药」这样哒!
&lv_6=12
&des_6=
&inote_6=(109)
{1},,
{1}3h[4:4],
{2}5h[4:2],4,
{1}1h[4:4]/7h[4:4],
{16},,,,,,26,26,,4p8[8:1]/8p4[8:1],,7,,,,,
{8}1-5[8:1],,5-7[8:1],,8-4[8:1],,A4,,
{8}7-4[8:1],4-7b[8:1],,,2-5[8:1],5-2b[8:1],,,
{8}8bx-4b[8:1],,4bx-2b[8:1],,1bx-5b[8:1],,5b,,
{8}2-6[12:1],6-2b[12:1],,,8w4[8:1],17,,,
{16}3>7[12:2]/4,,,,5,,,6h[16:3],,,5h[16:2],,7,,,,
{16}6<2[12:2]/5,,,,4,,,3h[16:3],,,4h[16:2],,2,,,,
{16}3>7[12:2]/4,,,,5,,,6h[16:3],,,4h[16:2],,5,,,,
{16}6<2[12:2]/5,,,,4,,,3,3h[8:1],,7,7,1,1bx,,,
{16}3V51[12:2]/5,,,,6,,,7h[16:3],,,1h[16:2],,8,,,,
{16}6V48[12:2]/4,,,,3,,,2h[16:3],,,8h[16:2],,1,,,,
{16}3V51[12:2]/5,,,,6,,,7h[16:3],,,3h[16:2],,5q2[8:1],,,,
{16}4p7[8:1],,,,6^1[8:1],,,,3^8[8:1],,,,5qq6<3b[16:12],,,,
{16}Ch[16:12],,,,,,,,,,,,,,,,
{8}3h[4:1],,5h[4:1],,4^1-5[12:3],,,,
{8}6h[4:1],,4h[4:1],,5^8-4[12:3],,,,
{8}1xw5[12:3],,,,{16},,2,4,3,,5,,
{16}5pp5[4:1],,,,,,4,,4qq4[4:1],,7,,7,,,,
{16}6<4[4:1],,,,4>6[4:1],,4,,,,5,,5,,4,,
{16}4qq5[4:1],,,,,,6,,6pp5[4:1],,2,,2,,,,
{16}3>5<3[2:1],,,,5,,5,,,,4,,4,,5,,
{4}5-1[8:1],1-3[8:1],4-8[8:1],8-6[8:1],
{4}5-1[8:1],1-3[8:1],4-8[8:1],8-6[8:1],
{16}5-1[8:1],,5,,4-2[12:1],,4,,5,,5,,3pp4b[8:3]*V14b[8:3]/4,34,34,34,
{16},,,,,,,,C,,,,,,3,,
{16}4-8[8:1]/2,,5,,6/4,,7,1h[16:2],,5h[16:2],,4,6h[16:2],,2h[16:2],,
{16}4-8[8:1],,3,,24,,1,7h[16:2],,3h[16:2],,4,2h[16:2],,6,,
{16}5-1[8:1]/7,,4,,3/5,,2,8h[16:2],,4h[16:2],,5,3h[16:2],,7h[16:2],,
{16}5-1[8:1],,6,,75,,8,2h[16:2],,6h[16:2],,5,7h[16:2],,4-1[8:1],6,
{16}5-8[8:1],,4x,,5x,,2,2h[16:2],,4,,3,5,,5-8[8:1],3,
{16}4-1[8:1],,5x,,4x,,7,7h[16:2],,5,,4,6,,6,4,
{16}5-8[8:1],,,,1,,1>5[16:4],,,,5<1[4:1],,,,1,,
{16},,5,,4pp4[4:1]*qq4[4:1],,35,,4w8[8:1],,,,,,,,
{16}3-1[8:1],,3,,7-5[8:1],,7,,1v6[8:1]*p5[8:1],,1,,,,,,
{16}7-5[8:1]/5-1[8:1],,4,,,,,,2-4[8:1]/4-8[8:1],,5,,,,,,
{16}6-8[8:1],,6,,2-4[8:1],,2,,8v5[8:1]*p4[8:1],,8,,,,,,
{16}4-8[8:1]/2-8[8:1],,3,,4b,,,,5-1[8:1]/7-1[8:1],,6,,5bpp5b[4:1]*qq5b[4:1],,,,
