&title=ぽやしみブルーライト (feat. uwu & わらべ)
&artist=Uscool
&first=-0.787
&des=纱盐>_<
&lv_5=13
&des_5=纱盐>_<
&inote_5=
(185){4},,,,,,,,,,,,,,,,A3h[4:1],
A4h[4:1],A5h[4:1],A6h[4:1],
{8}1,2-5[8:1],,6,{4}7V16[4:1],{8}5,4,
{4}3p7[4:1],7<4[4:1],4V28[4:1],8,
{8}7,7<4[8:1],,3,{4}2<7[8:1],{8}6,5h[8:3],
{24},,,,,,,,,,,,{6}E6/E5,E4/E7,E8/E3,
{4}1xpp5[2:1],8h[4:1],,7h[4:1],
6>2[4:1],8,7V53[4:1],{8}2,1h[8:5],
,,,,,,,,{2}8<5[4:1],
4>1[4:1],
{8}8,7-4[8:1],,1,{4}2-5-3[4:1],{8}6,7,
{4}8<5[8:1]*v5[8:1],8,4v1[8:1]*>1[8:1],4,
{8}8,7V51[4:1],,1,{4}2V48[4:1],{8}8,7h[8:3],
{24},,,,,,,,,,,,{6}E8/E7,E1/E6,E5/E2,
{8}3x,3xh[4:1],,1,{4}1h[4:1],{8}8,8h[4:1],
,6,{4}6h[4:1],{8}4,4h[8:3],,,5V71[4:1],
,,3,4V68[4:1],,,2,
{4}3h[4:1],1-5-8-6[8:3],{8}2,2,{4}2h[4:1],
{8},,5b/4b-7[8:1],3,{4}2h[8:1],{8}1/8-3[8:1],7,
{4}6h[8:1],5v7[8:1],5V31[4:1],8h[8:1],
7,6q3[4:1],2,1p4[4:1],
7,6h[4:1],{8}5qq2[8:3],7,{4}5,
{8},,8-4b[8:1],1,{4}8,{8}2-6[8:1],7,
{4}2,{8}5-7[8:1],4,{4}5V31[4:1],8,
7h[4:1],8q4[8:1],6,5q1[8:1],
3,A2,B1/B3,B7/B5,
A6f,8b/1b>4[4:1],4<7[4:1],7>2[4:1],
2>5[4:1],5<1[4:1],1>5[4:1],5,
6<2[4:1],2-7-5[4:1],5V38[4:1],8V64>5[4:3],
{1}1xh[4:3],
{4}2-5[8:1],2/1,{8}8,7p3[8:1],,7,
{4}2h[4:1],1<6[8:1],{8}1,4h[8:3],,5,
{4}5-1[8:1],5/3h[4:1],{16},,,,7,8,7,8,
6,1,6,1,{8}5h[8:1],{16}3,3,{8}4,5/2,{16}1,8,1,8,
2,7,3,6,{8}4-8-2[4:1],5,4,6,7-4[8:1],7,
{4}1h[4:1],{8}5-1-7[4:1],4,5,3,{4}2>5[8:1],
6h[8:1],{8}7,7>2[8:1],,5/7,,3pp6[8:3],
4,3,,,,,7-4[8:1],8v3[8:1],
7,8,5-8[8:1]*-2[8:1],5,{4}5,1h[4:1],
8-4b[8:1],2-5b[8:1],6-1b[8:1],2,
3h[4:1],8h[4:3],,,1,
1pp1[4:1],7,6bh[4:1],
C,{8}5-8[8:1],4h[8:1],5,4h[8:1],7-3[8:1],2h[8:1],
7,2,1-4[8:1],8h[8:1],1,{16}7,7,{8}3-7[8:1],5h[8:1],
3,5h[8:1],{4}4-2[8:1]*-8[8:1],4,{16}7h[16:3],,,5h[16:3],
,,{8}6h[8:1],3,3v8[8:1],,4,{4}5w1[8:1],
5,{8}7<5[8:1],1h[8:1],7,1h[8:1],4q8[8:1],2h[8:1],
4,{16}2,2,,,{8}1v4[8:1],8h[8:1],1,6h[8:1],5-2[8:1],
,7/5,{16}8h[16:3],,,1h[16:3],,,{8}7h[16:3],{16},2,{8}2h[8:1],
6,5,3,3qq1[8:1],,4,{4}4<7[8:1],
8b,{8}1,1h[4:1],,2,{4}2h[4:1],
{8}3,3h[4:1],,4,{4}4h[4:1],{8}5,5h[8:3],
,,8,8h[8:1],7,7h[8:1],6,6h[8:1],
5,5h[4:1],,4,{4}4h[4:1],{12}3,,B2/B4,
,B8/B6,,{4}7xq3[4:1],{2}1h[4:1],
{4}5h[4:1],4V28[4:1],8p3[4:1],7,
{8}6,6h[8:7],,,{2}2pp8[2:1],
{4},,7h[2:1],C,
E3/E4,5-8[8:1],{8}1,2>5[8:1],,1,
{4}8h[8:1],{8}7-4[8:1],1,7,2,3v1[8:1],5,
{4}3,{8}7/2,8<5[8:1],,1,{4}2-4[8:1],
{8}5,5,6-8[8:1],6,1,2,3-7[8:1],3,
{4}6h[4:1],{8}8>3[8:1],6,8,6,5<8[8:1],3,
5,3,2-5[8:1],1,2,8,7-4[8:1],1,
{4}7,{8}2-4[8:1],5-7[8:1],2,5,1-4[8:1]*-6[8:1],1,
{4}1,5V71[8:1]*<1[8:1],5V31V75b[8:3]*>5b[8:3],5b,
{8},,8-4b[8:1],1,{4}8,{8}2-6[8:1],7,
{4}2,{8}5-7[8:1],4,{4}5V31[4:1],8h[8:1],
7<4[4:1],4>1[4:1],1<5[4:1],5,
{8}4,4V25[4:1],,6,{4}7h[2:1],{8}B6,C,
{4}B2,{8}8<5[8:1],1,{4}2h[8:1],{8}4>1[8:1],5,
{4}6h[8:1],{8}7<4[8:1],8,{4}1h[8:1],{8}3>8[8:1],4,
{4}5h[8:1],{8}6>3[8:1],7,{4}8h[8:1],{8}2<7[8:1],3,
{2}4h[8:1],{4}B5,C,
B1,A1h[2:1],,,,A8h[2:1],
,,,A2h[2:1]/B2h[2:1],
,,,B7h[2:1]/A7h[2:1],
,,,A3h[2:1]/B3h[2:1]/E4h[2:1],
,,,A6h[2:1]/B6h[2:1]/E6h[2:1],
,,,E5h[2:1]/A4h[2:1]/A5h[2:1]/D5h[2:1],
,,,D1h[4:1]/E1h[4:1]/A8h[4:1]/A1h[4:1],
,B7/B6/B2/B3/E7h[4:1]/E3h[4:1],
,1h[8:1]/8h[8:1],8h[8:1]/1h[8:1],2h[8:1]/1h[8:1],
2h[8:1]/1h[8:1],8h[8:1]/7h[8:1],7h[8:1]/8h[8:1],3h[8:1]/5h[8:1],
4h[8:1]/6h[8:1],5/7h[4:1],3h[4:1],5,
2/4h[2:1],2h[4:1],,1w5[8:1],
1b,8V61[4:1],{8}1,2-5[8:1],,8,
{4}7-4[8:1],7/3V14[4:1],{8}5,6-1[8:1],,5,
{4}3-8[8:1]*-6[8:1],3,1h[4:1],{16}7,8,7,8,
6,1,6,1,{8}5h[8:1],{16}3,3,{8}6,5/7,{16}4,3,2,1,
8/5,6,7,8,{8}1/2-5[8:1],3,{4}2/1V75[8:1],3/1v4[8:1],
1/8,{8}7<4[8:1],8,7,1,2-5[8:1],8,
{4}2,{8}7,7pp1[4:1],,1V75-3[8:3],,3,
3,2h[8:3],,,{4}1,{8}8v5[8:1],1v4[8:1],
8,1,6-2[8:1],6,{4}6/5h[4:1],1,
8h[2:1],1,B2f/A2,4h[4:1],
B6f/A6,8h[4:3],,,1,
1pp1[4:1],8,7h[4:1],
{8}8-4[8:1],8,{4}Cf/8bq6<2[2:3]/4bq2>6b[2:3],{1},{4},,,{16}7h[16:3],
,,8h[16:3],,,{8}1h[16:3],{16},2h[16:3],,,{8}6,
6,4,3-8[8:1],,7,{4}6>3[8:1],
6/1,{8}2q6[8:1],1,{4}2/8,7h[4:1],
6-2[8:1],8,3-7[8:1],5,
1/8h[4:1],{16}3h[16:3],,,4h[16:3],,,{8}5h[16:3],{16},6h[16:3],,,{1}1<7-2-5>3-6-1[1:1],
E
