&title=小悪魔だってかまわない!
&artist=HoneyWorks feat. めいちゃん
&first=0.01
&des=コネコ
&lv_5=13+
&inote_5=(177)
{1},
{16},,,,,,,,,,,,,,,,
{16}4qq5[2:1]/6pp5[2:1],,,,,,,,,,,,,,,,
{16}5pp4[2:1]/3qq4[2:1],,,,,,,,,,,,,,,,
{16}5-8[8:1]/2,,,,4,,,,4-1[8:1]/7,,,,5,,,,
{16}26,,,,37,,,,48,,,,1x^6[8:1]/5x^2[8:1],,,,
{16}15,,,,3xb-1[8:1],,,,6xb-1[8:1],,,,5xb-1[8:1],,,,
{16}8,,8h[4:1],,,,1,,2-5[8:1]/7-4[8:1],,,,27,,,,
{16}1b/8b,,,,25,,25,,36,,36,,4q5[3:1]/7,,47,,
{16},,,,6x-2b[8:1]*-1[8:1],,,,{32}B6f,Cf,B2f,A2f,{16},,,,,,
{16}3^1[8:1]/8,,,,5^7[8:1]/3,,,,3^1[8:1]/5,,,,35,,5x,,
{16}78,,6x,,78,,1xs5[4:1],,7h[4:1]/8,,,,,,,,
{16}4x^2[8:1]/8x,,,,6^8[8:1]/4,,,,64,,4x,,13,,2x,,
{16}38,,2x,,37,,2x,,36,,5,4,5,,2,,
{16}6^8[8:1]/1,,,,4^2[8:1]/6,,,,6^8[8:1]/4,,,,64,,4x,,
{16}21,,3x,,21,,8xz4[4:1],,2h[4:1]/1,,,,,,,,
{16}3x^1[8:1]/5x^7[8:1],,,,35,,,,7x/8x,,16,,25,,3b/4b,,
{16},,1x/2x,,38,,4/7,,5b/6b,,,,Cf/B4/B5,,,,
{16}1xh[4:1]/7x-4[8:1],,,,,,,,8-4[8:1]/2h[4:1],,,,,,,,
{16}1-4[8:1]/3h[4:1],,,,,,,,2,,2,,34,,,,
{16}6h[4:1]/5-8[8:1],,,,,,,,5-8[8:1]/1h[4:1],,,,,,,,
{16}7/5-8[8:1],,,,5pp4[3:1],,,,,,B1/E2,,B4/E4,,,,
{16}8xh[4:1]/2x-5[8:1],,,,,,,,1-5[8:1]/7h[4:1],,,,,,,,
{16}8-5[8:1]/6h[4:1],,,,,,,,7,,7,,65,,,,
{16}7pp2[2:1]/4,,,,8h[2:1],,,,,,,,,,{32}D2,A1,D1,A8,
{16}D8f,,,,D6/A5/D5/A4/D4f,,,,B2/E3f/B3/Ch[2:1],,,,,,,,
{16}2xp6p2[1:1],,,,,,,,6p2p6b[1:1],,,,,,,,
{16}2p6[2:1]*q6[2:1],,,,,,,,,,,,,,,,
{16}5<3[1:1],,,,,,,,8>6b[1:1],,,,,,,,
{16}3^6[2:1]*^8[2:1],,,,,,,,,,,,,,,,
{16}7q3q7[1:1],,,,,,,,3q7q3b[1:1],,,,,,,,
{16}7q3[2:1]*p3[2:1],,,,,,,,,,,,,,,,
{16}3x/4x,,3,,2/E8/B8/B7,,2,,34,,3,,2/E8/B8/B7,,2,,
{16}6x/5x,,6,,7/E2/B1/B2,,7,,65,,6,,7/E2/B1/B2,,7,,
{16}4x,5,4,5,3,6,3,6,2,7,2,7,1,8,1,8,
{48}B7/C/B2,E7/B6/B3/E3,B5/B4/E5f,{16},,,,,,,,,,,,,,,
{16}6/5x-8[8:1],,6,,53,,3,,4-1[8:1]/6,,6,,42,,2,,
{16}7/5-8[8:1],,7,,5v2[8:1]*-3^2[8:1]/3,,3,,5xv8[8:1]*-7^8[8:1],,,,5x,,,,
{16}6/1-5[8:1],,6,,21,,2,,6/1-5[8:1],,6,,21,,2,,
{16}6/1-5[8:1],,6,,2/1^6[8:1]*^4[8:1],,2,,1xw5[8:1],,,,1x,,,,
{16}3b/4x-1[8:1],,3,,4/6b,,6,,5b-8[8:1]/3,,3,,57,,7,,
{16}2/4-1[8:1],,2,,4v7[8:1]*-6^7[8:1]/6,,6,,4xv1[8:1]*-2^1[8:1],,,,4x,,,,
{16}3x/8^3[8:1],,1,,78,,5,,1^6[8:1]/6,,2^5[8:1],,1,,2bpp7[8:3]*pp8[8:3],,
{16},,,,B4/B3/E4f,,,,,,6x,5x,6x,5x,6x,5x,
{16}6x^8[8:1],,,,64,,,,6^8[8:1],,5,,64,,5qq3[8:1],,
{16},,5,,7,,8,,1xb-5[8:1]/2xb-6[8:1],,,,1b/2b,,,,
{16}3^1[8:1],,,,35,,,,3^1[8:1],,4,,35,,4pp6[8:1],,
{16},,4,,2,,1,,8xb-4[8:1]/7xb-3[8:1],,,,8b/7b,,,,
{16}6^1[8:1]/2,,,,4^1[8:1]/6,,,,48,,7p3[8:1],,6,,78,,
{16},,2q6[8:1],,3,,12,,,,8,,4b/8b,,,,
{16}5/6h[4:1],,7,,8,,3,4,3h[4:1],,2,,1^6[8:1]*^4[8:1],,8,,
{16},,,,5xqq5[3:1]*pp5[3:1],5x,5x,5x,5xb,,,,,,,,
{16}A8/D8/E8f/4,,,,,,,,,,,,,,,,
{16}A2/B2f/E3/5,,,,,,,,,,,,,,,,
{16}A6/B6f/E6/4,,,,,,,,,,,,,,,,
{16}A4/D4/E4f/5,,,,,,6,5,6,,7,,1b/8b,,,,
{16}6-3[8:1],,,,7x-2[8:1],,,,6-3[8:1],,,,7x-2[8:1],,,,
{16}6-3[8:1],,,,7x-2[8:1],,,,6-3[8:1],,,,1x,,,,
{16}24,,24,,35,,35,,46,,46,,57,,57,,
{16}8b,,3,4,3,,6,5,7,,3,4,1-5b[8:1],,,,
{16}1x/8x,,7,,6,,1x/2x,,3,,4,,7x/8x,,6,,
{16}5,,2x/6x,,18,,4,,12,,5,,78,,{24}2x,3x,4x,
{16}5x-1[8:1]/7h[4:1],,,,5,,{24}7x,6x,5x,{16}4x-8[8:1]/2h[4:1],,,,4,,2,,
{16}3,1,3,1,4,8,4,8,5,7,5,7,{24}4,3,2,8,7,6,
{16}4x^1[8:1]/5x,,4,,5,,6,,7^4[8:1],,7,,8,,1,,
{16}2^7[8:1],,2,,3,,4,,5^2[8:1],,5,,6,,7,,
{16}18,,2,4,3,7,5,6,3,4,3,5,4,6,5,6,
{16}1bV37[4:1],,,,5,,7,,1V35b[8:1]*V75b[8:1],,,,,,,,
{16}2xb-6pp7[2:3]/8xb-4qq3[2:3],,,,,,,,,,,,,,,,
{16},,,,,,,,,,,,,,,,
{16}7x-3qq2[2:3]/1x-5pp6[2:3],,,,,,,,,,,,,,,,
{16},,,,,,,,,,,,,,,,
{16}2V48[2:1],,,,,,5,,5,,,,6,,,,
{16}7V51[2:1],,,,,,4,,4,,,,3,,,,
{16}2h[8:1]/8,,,,2h[8:1]/7,,,,2h[8:1]/6,,,,25,,2,,
{16}7h[8:1]/1,,,,7h[8:1]/2,,,,7h[8:1]/3,,,,74,,7,,
{16}26,,4,,37,,5,,26,,3,4,2,,6,5,
{16}7b,,,,,,,,,,,,,,,,
{16}2h[4:3],,,,B3/B4,,A4/D4,,,,,,1,,,,
{16}8h[4:3],,,,B6/B5,,A5/D6,,,,,,1,,,,
{16}2h[4:3],,,,B3/B4,,A4/D4,,,,,,1,,,,
{16}8h[4:3],,,,E6,,E5,,E4,,,,1b,,,,
{16}2x/7x,,3,4,3x,,3,2,3x,,3,1,3x,,3,8,
{16}3xb,,6,5,6x,,6,7,6x,,6,8,6x,,6,1,
{16}6xb,,,,4,5,4,5,3,6,2qq8q8[8:7],7pp1p1[16:13],1,8,,,
{16},,,,,,,,,,,,,,,,
{16}6/5-8[8:1],,7,,53,,2,,4-1[8:1]/7,,8,,43,,2,,
{16}8/5-8[8:1],,6,,5v2[8:1]*-3^2[8:1]/3,,1,,5xv8[8:1]*-7^8[8:1],,,,5x,,,,
{16}6/1-5[8:1],,8,,21,,3,,6/1-5[8:1],,8,,21,,3,,
{16}6/1-5[8:1],,8,,2^7[8:1]/1^4[8:1],,3,,1x/2x,,,,{24}3x,2x,1x,7x,6x,5x,
{16}3b/4x-1[8:1],,2,,4/6b,,7,,5b-8[8:1]/2,,1,,56,,7,,
{16}1/4-1[8:1],,3,,4v7[8:1]*-6^7[8:1]/6,,8,,4xv1[8:1]*-2^1[8:1],,,,4x,,,,
{16}3/8-3[8:1],,1,,78,,5,,2/7-4[8:1],,3-8[8:1],,7,,3b,,
{16},,E3/A2/A3,C,E7f,,,,1x,8x,2x,7x,3,6,4,5,
{16}3-1[8:1],,,,34,,,,3-1[8:1],,4,,35,,4-6v7[4:1],,
{16},,4,,2,,1,,7xb-4[8:1]/8xb-5[8:1],,,,7b/8b,,,,
{16}6-8[8:1],,,,65,,,,6-8[8:1],,5,,64,,5-3v2[4:1],,
{16},,5,,7,,8,,2xb-5[8:1]/1xb-4[8:1],,,,2b/1b,,,,
{16}3^6[8:1],,,,7^2[8:1]/3,,,,57,,4q8[8:1]*p8[8:1],,3,,4,,
{16},,5q1b[8:1]*p1b[8:1],,6,,5,,,,2x,,3,,4,,
{16}65,,7,,34,,2,,8,1,8,,27,,3b>6-4[8:3]*>5-3[8:3]/6b,,
{16},,,,,,,,A3/D4f/A4,,,,2,5,1,6,
{16}8-3[8:1],,,,7-4[8:1]/8,,,,8-3[8:1]/7,,,,85,,5x,,
{16}46,,2x,,37,,8x,,46,,7x,,6x,,5x,,
{16}4-7[8:1],,,,3-8[8:1]/4,,,,34,,4x,,51,,6x,,
{16}25,,6x,,35,,6x,,45,,6,5,7,4,8,3,
{16}1-6[8:1],,,,2-5[8:1]/1,,,,1-6[8:1]/2,,,,14,,4x,,
{16}53,,7x,,62,,1x,,53,,2x,,3x,,4x,,
{16}5-2[8:1]/6-1[8:1],,,,56,,,,8x,,34,,56,,1b,,
{16},,7x,,34,,56,,2b-6[8:1],,8x,8x,2x,,,,
