&title=Melodiniq
&artist=onoken a.k.a. owl*tree
&first=-0.817
&des=peterw_
&lv_7=15
&des_7=peterw_
&inote_7=
(193){4},{1},,,,{4},,,{12}E3,
B3,B4,B5,B6,E7,E3,E4,E5,E6,E7,E8,
D3,D4,D5,D6,D7,D8,D1,D2,D3,D4,D5,D6,
{2}7h[2:1],1h[2:1],
3h[2:1],5h[4:1],
{32}7bqq8V25[4:9],6/8,5/1,4/2,{8}3qq4V61b[8:17],{1},,{4},,,{1}4h[4:3]/8h[4:3],
3h[4:5]/2b-7-4-1-6b[4:7],
,5pp1pp5[4:7],
{4},,,,6h[4:1],
5-3[8:1],7/5,{8}6,6,
3,5,{4}2-5-8[2:1],{2}2/4h[4:1],
{4}7h[4:1],1-6[8:1],1/2,{8}4,4,
6,5,{4}7>3-5[16:7],{2}7/2h[4:1],
{4}8h[4:1],6-2[8:1],6/5,{8}3,3,
1,2,{4}8-4>1[2:1],{2}8/6h[4:1],
{24}5h[2:1]/D1,A8,D8,A7,D7,A6,{12}D6,{24}D5,A4,D4,A3,{12}D3/E3,D2/E2,D1/E1,D8/E8,D7/E7,E6/D6,
{2}8h[2:1]/E5/D5,2-6[8:1],
{16}7,5,{8}7h[8:1],{16}3,5,{8}3h[8:1],{16}6,4,{8}6h[8:1],{16}2,4,{8}2,
3/5-1[8:1],6,7,7,8-4[8:1],2,{4}8/3,
{16}2,5,{8}2h[8:1],{16}6,4,{8}6h[8:1],{16}2,8,{8}3h[8:1],{16}6,5,{8}6,
7/4-8[8:1],3,2,2,1-5[8:1],7,{4}1/6V83[4:1],
3V16[4:1],4-8[8:1],4,{8}1/5,2,
3/6-2[8:1],7,8,8,{16}7/3,6,5,4,3,2,1,8,
3,7,3,7,2,6,2,6,1,5,8,4,1,5,2,6,
{4}3-8[8:1],{8}3/7,{16}6,5,{4}4-7[8:1]/1-4[8:1],1/4,
3>7[4:1],7q4[4:1],4<8[4:1],8>4[4:1],
4q8[4:1],8q5[4:1],5>1[4:1],{16}1,8,7,6,
{4}5<1[4:1],1p4[4:1],4>8[4:1],8<4[4:1],
4q8[4:1],8q6[4:1],{8}2,3,{4}4h[4:1],
7-4[8:1],7/1,{8}2-6[8:1],3,{4}4/2,
7-4[8:1]/5-1[8:1],7/5,{8}2-5[8:1]*-7[8:1],3,{4}2,
6V84[4:1],{8}3,3-1[8:1],,5/3,{4}7V51[4:1],
{8}8/7,1,2,3V51[4:1],,3/7,{4}6-2b[8:1],
{1}6bq7[4:11]/2bq3[4:11],
,,{4},,,{8},5,
4/6h[4:1],3,2,5h[4:1],4,3h[4:1],6,7h[4:1],
,5,4,3,2h[4:1],8,7,6,
5h[4:1],4,3h[4:1],6,7h[4:1],5,4,3h[8:5],
{24}D7,A6,D6,A5,D5,A4,{12}D4,{24}D3,A2,D2,A1,{12}D1/E1,E8/D8,E7/D7,E6/D6,E5/D5,D4/E4,
{2}2>7[2:1],{8}7>2-5[16:9],,,6h[4:1],
,,,,7-5[8:1],5pp4[2:1],7,4h[4:1],
,,,,2-4[8:1],4qq5[2:1],2,5h[4:1],
,,,6h[4:1],,,7/5,4,
{2}5h[8:1]/3>6[2:1],{8}6>3-8[16:9],,,7h[4:1],
,,,,6-8[8:1],8-4-8[16:7],6,2h[4:1],
,,,,1-7[8:1],7<4-2[8:3],1,5h[8:3],
,,,,{2}1/8-4[8:1],
{16}2,5,3,5,{8}3h[8:1],{16}6,4,6,4,{8}6h[8:1],{16}3,5,{8}3h[8:1],
{16}7,4,6,4,{8}6h[8:1],{16}3,5,3,5,{8}3h[4:1],{16}2,1,8,7,
5,6,5,6,{8}4h[8:1],{16}7,5,7,5,{8}8h[8:1],{16}5,4,3,2,
8,1,8,1,{8}7V51[16:5],8,1,2,{4}3h[4:1],
{8}2-6[8:1],2,1-5[8:1],1,8-4[8:1],8,3,3,
{16}2,6,2,6,1,5,1,5,{24}1,8,7,6/4h[8:1],,,7,8,1,2,3,4,
{1}6/5-1[8:5],
(196){24}2bh/8bh,3/7,4/6,5pp8b[4:3],,,,,,,,,{2}B2h[8:3]/E3h[8:3]/B3h[8:3],
{8},4,{12}7h[6:1],3,3,6h[6:1],2,2,5/1-5[8:1],{24},,,,{8}1/8,
7,6V48[4:1],3-1[8:1],6,3,,7,
{4}1/5-1[8:1],{8}2,4-8[8:1],{12}8h,7h,6h,5-1b[8:1],,,{4}5b/B2h[8:3]/B3h[8:3]/E3h[8:3],
{16}8,7,6,5,{4}4/8h[4:1],{16}5,6,7,8,
{4}5h[8:1]/1h[8:1],{16}8/4,7/3,6/2,1/5,{4}8-3[8:1]/4-7[8:1],4/8,
{8},1-3[8:1],8-6[8:1],1-5[8:1],8,1w5[8:1],,1,
{24},,,3,2,1,{4}7-4-1[16:5]/8-3-6[16:5],{2}8/7,
{24}7bh/1bh,6/2,5/3,4V28v3b[8:5],,,,,,,,,{2}E7h[8:3]/B6h[8:3]/E6h[8:3],
{8},4,{12}2h[6:1],5,5,1h[6:1],6,6,8/7-4[12:1],{24},,,,{8}7/2-5[8:1],
2,2/6V83[4:1],6,6/4,4w8[8:1],,4,
{24},,,2,3,4,{4}5h[8:1]/6h[8:1],{12}7h/3h,2h/6h,5h/1h,4h/8-3b[8:1],,,{4}8b/B6h[4:1]/B5h[4:1]/E6h[4:1],
{16}2,1,8,7,{12}5,5,5,3,3,3,
1-5[8:1],1,1,B3h[4:1],,,7,8,1,2,3,4,
{1}5bh[1:1]/1b>8[2:3],
{16},,,,,,,,,,,,,,,,(206)1-5[4:7],
8,2,8,2,8,2,8,{12}3h[12:1],7h[12:1],3h[12:1],7h[12:1],3h[12:1],7h[12:1],
2h[12:1],8h[12:1],2h[12:1],8h[12:1],2h[12:1],8h[12:1],{16}1,1,1,1,{4}1b,
{16}4,3,2,1,8/7,1,2,3,4/5,6,7,8,1/2,8,7,6,
5/4,3,2,1,3/8,2,1,8,{32}2/7,3,4,5,6,7,8,1,{4}2b/6b,
(209){16}8-4[4:7],1,7,1,7,1,7,1,{12}6h[12:1],2h[12:1],6h[12:1],2h[12:1],6h[12:1],2h[12:1],
5h[12:1],3h[12:1],5h[12:1],3h[12:1],5h[12:1],3h[12:1],{16}6,2,7,1,{4}8b,
{16}3,2,1,8,7/4,5,6,7,8/4,3,2,1,8/5,6,7,8,
1/5,4,3,2,1/5,8,7,6,{32}5,4,3,2,1,8,7,6,{4}5b,
(212){16}2-6b[0.283##1.9653],1,3,1,3,1,3,1,{12}4h[12:1],8h[12:1],4h[12:1],8h[12:1],4h[12:1],8h[#0.09433746],
(215)3h[12:1],1h[12:1],3h[12:1],1h[12:1],3h[12:1],1h[12:1],{16}2,2,2,2,{4}2b,
{16}5,4,3,2,1/6,2,3,4,5/8,4,3,2,1/6,2,3,4,
5/7,8,1,2,3/5,2,1,8,7/3,6,5,4,3/7,2,1,8,
(218){4}7/2-5[8:1],B6/E7,{8}8-4[8:1],4,{4}B2/E3,
1-5[8:1],E7/B7,{8}8-4[16:3],4,{4}B2/E3,
(221)1-5[8:1],1/B6/E6/A6,{8}7-4[8:1],4,{4}7/B3/E3/A3,
2-5[8:1],2/A8/E8/D8,{12}6,6,6,4,4,4,
(224){2}2bV85b[2:1],{8}3h[4:1],,,2-7-4-1[2:1],
,5,{4}5-8[8:1],5,{8}7/2,6/3,
(227){4}4/5h[4:1],{8}3,3,4/2-5[8:1],2,2,6,
4/7-4[8:1],7,7,3,5/1-5[8:1],1,1,7,
{16}4,8,4,8,4,8,4,8,4,8,4,8,4,3,2,1,
(230){24}7b,6,5,4,3,2,1,8,7,3b,4,5,6,7,8,1,2,3,{4}4/8bw4[4:7]*w4b[1.3044##0.7826]*-4b[8:1],
{1}8b/1b,
{4},,,,(236)5h[8:1]/6h[8:1]/3h[8:1]/2h[8:1],
5h[8:1]/6h[8:1]/3h[8:1]/2h[8:1],{8}5h[8:1]/6h[8:1],1h[8:1],6h[8:1]/5h[8:1],8h[8:1],
5h[8:1]/6h[8:1],1h,{4}7h[8:1]/6h[8:1]/3h[8:1]/2h[8:1],8h[8:1]/7h[8:1]/4h[8:1]/3h[8:1],8h[8:1]/4h[8:1]/5h[8:1]/1-5[8:1],
,6h[8:1]/7h[8:1]/3h[8:1]/4h[8:1],{8}3h[8:1]/2h[8:1],5h/6h,,1bh[4:1]/2bh[4:1]/7bh[8:3]/8bh[8:3],
,,3h[8:1]/4h[8:1],6h[8:1]/5h[8:1],2h[8:1]/3h[8:1],7h[8:1]/6h[8:1],1h[8:1]/2h[8:1],8h[8:1]/7h[8:1],
{4}3bh[4:1]/4bh[4:1],5h/6h,{8}1h/2h,2h[8:1]/1h[8:1],6h/7h,6h[8:1]/7h[8:1],
{4}4h[4:1]/3h[4:1],5h/6h,{8}3h/2h,7h/6h,3h/2h,7h/6h,
1h[4:1]/2h[4:1],,,4h/5h,3h/6h,7h/2V46V82b[8:7]*>2b[8:7],1h/8h,E3f/B2/A2/B3/A3,
,,,,,,,,{4}5h[2:1],
3-8[16:3]/4-8[16:3],{8},,,7-3[16:3],
,2,{4}2h[2:1],{8}E5/D5,E6/D6,E7/D7,E8/D8,
{4}3-1[4:1]/4-8[4:1],8-6[4:1]/1-5[4:1],{8},,,8>4[8:3],
,4,{4}4-1b[4:1]*<5-8b[4:1],,,1w5[8:1],
Cf,3h[8:1]/7h[8:1],6h[8:1]/4h[8:1],
{16}7,5,7,5,{8}7h[8:1],{16}3,4,3,4,{8}3h[8:1],5,5h[4:1],
{32}A4/D4,A3,D3,A2,{8}D2,8,8,1/7,2,3,5bh[8:7]/4b<3b[0.2542##0.8898],
,,,,,,,,(240){4}4w8[8:1],
Cf,{8},2h[4:1],{16}5,6,7,8,
1/3,4,5,6,7,8,1,2,3/6,7,8,1,2,3,4,5,
{8}6/2,2-6[8:1],,2-8[8:1]*-7[8:1],,2-4[8:1]*-5[8:1],,2,
,6,6,5h[4:1],{16}7,8,1,2,3,4,5,6,
{4}1-3[8:1]/7-5[8:1],1/7,{12}4,4,4,3b/5b,{96},,,,,,,,,,,,,,,,{32}6h[4:1]/A2/D2/E2,
A1,D1,A8,D8,A7,{16}D7,{32}D6,A5,D5,A4,D4,D4,A3,D3,{4}Cf/A2,1h[8:1]/8h[8:1],
{24}2b,3,4,5,,,{8}7h[4:1],{24}1b,2,3,{8}4,6h[8:1],{32}8b,1,2,3,4,5,6,7,
{4}8-4[8:1],{8}8/1-5[8:1],2,1/7-4[8:1],6,{16}7/4,3,2,1,
{4}8h[4:1],{8}4-7[8:1],4,1-4[8:1],1,5-8[8:1],5,
2-5[8:1],2,1-6[8:1],1,{16}4,3,2,1,8,7,6,5,
{24}7/4,8,1,2,3,4,5,6,7,8/Cf,,,,,,{8}2,{4}1b/3bh[4:1],
{32}A8/D8,A7,D7,A6,D6,A5,D5,A4,{4}D4/2-6[8:1],2/4-8b[8:1],4/1,
{16}2,3,4,5,2>7[16:5],3<8b[16:5],4<1[16:5],5<2b[16:5],A2,A3,A4,A5,A6,A7,A8,A1,
5,6,7,8,1,2,3,4,1,2,3,4,{4}7/5h[8:1],
{24}8b/B3fh[8:1],7,6,5,,,,,,2b/E7fh[8:1],3,4,{4}5,{24}8b/B2fh[8:1],7,6,5,,,,,,1b/E8fh[8:1],
2,3,{4}4-8[8:1],4/7-4b[8:1],1,
{8}2V48[16:5],2,5,6,7V15[16:5],7,2,3,
4V62[16:5],4,7,8,{4}1-5[8:1],3/1,
{16}4b,3,2,1,8,7,6,5,4bh[16:1],3h[16:1],2h[16:1],1h[16:1],8h[16:1],7h[16:1],6h[16:1],5h[16:1],
{32}D1,A1,D2/E2,A2,D3/E3,A3,D4/E4,A4,D5/E5,A5,D6/E6,A6,D7/E7,A7,D8/E8,A8,D1/E1,{64}A1h[32:0],B1,D2h[32:0],E2,A2h[32:0],B2,D3h[32:0],E3,A3h[32:0],B3,D4h[32:0],E4,A4h[32:0],B4,D5h[32:0],E5,A5h[32:0],B5,D6h[32:0],E6,A6h[32:0],B6,D7h[32:0],E7,A7h[32:0],B7,D8h[32:0],E8,A8h[32:0],B8,
{4}D1fh[32:0],{8}5b/4b,5`4,5h/4h,5h`4h,5/4,5`4,
5h/4h,5`4,4-1[8:1]/5-8[8:1],5h`4h,{4}5/4,7/2,
{32}2,3,6,5,2,3,6,5,1,2,7,6,1,2,7,6,{24}1,2,3,8,7,6,1,2,3,7,6,5,
2,3,4,5,6,7,8/6h,1/7h,2/8h,3,4,5,6,7,8,1,2,3,4/6h,5/7h,6/8h,7,8,1,
{1}2bh[1:3]/6b<7>8>1>2>3<4<5<6<7>8b[4:17],
{4},,,,,,,,,,,3,
,,{2}4h[1:2],
{1},{4},,{24}D8/A8,
A7,D7,A6,D6,A5,{4}D5h[2:5],
{8},,,A6,{24},E7,,,,B6,,,,{8}C,
{16},B3,,,{4}E3,A3,C,
,1h[4:13]/8h[4:13],
E
