&title=This Club is Not 4 U
&artist=EmoCosine
&first=0
&des=Only 1 for U
&clock_count=4
&wholebpm=160.000
&demo_seek=43.115
&demo_len=17.413
&lv_5=13+
&des_5=Only 1 for U
&inote_5=(160){1},
{16}
3hx[1:0],,,,6hx[1:0],,,,4hx[1:0],,,4hx[1:0],,,5hx[1:0],,
3hx[1:0],,,,6hx[1:0],,,,4hx[1:0],,,4hx[1:0],,,5hx[1:0],,
{12}
3h[1:0],4h[1:0],3h[1:0],6h[1:0],5h[1:0],6h[1:0],
2h[1:0],3h[1:0],4h[1:0],5h[1:0],6h[1:0],7h[1:0],
{16}
1x/8x,,2,1,,,3/4,,5-3-1[16:3],,6,5,,,,,
8h[4:1],,,,,,1,,
2h[4:1]/8-6[12:1],,,,,,,,
3-1[12:1]/5h[4:1],,,,,,,,
5v7[8:1]/1v3[8:1],,,,,,,,
8h[4:1],,,,,,1,,
1h[4:1]/7-5[12:1],,,,,,,,
4-2[12:1]/6h[4:1],,,,,,,,
2v4[8:1]/6pp8[8:1],,2,,,,,,
7h[4:1]/3-1[12:1],,,,,,6,,
2h[4:1]/4-6[12:1],,,,,,3,,
4h[4:1]/7-5[12:1],,,,,,3,,
2v4[12:1]/4pp6[8:1],,,,,,,,
8h[4:1]/5-3[12:1],,,,,,7,,
6h[4:1]/2-4[12:1],,,,,,7,,
8h[8:1]/5h[8:1],,,7h[8:1]/5h[8:1],,,6h[1:0]/5h[1:0],,3-8[8:1]/5-3[12:1],,,,3bx,,,,
1>4[8:1],,,,4,,,,5<8b[8:1],,,,8h[384:1],,,,
2h[8:1]/1h[8:1],,,2h[8:1]/3h[8:1],,,1h[1:0]/2h[1:0],,1v4[8:1]/8v5[8:1],,,,1,,,,
6<1[8:1],,,,4b,,,,2>5b[8:1],,,,8bh[1:0],,,,
6h[8:1]/5h[8:1],,,6h[8:1]/7h[8:1],,,5h[1:0]/6h[1:0],,5v8[8:1]/4v1[8:1],,6h[1:0],,4b,,,,
2h[8:1]/7,,,6,5-8[8:1],,7,,4h[8:1],,,1h[8:1]/4h[8:1],,,7h[1:0]/4h[1:0],,
6h[8:1]/3,,,2,4-1[8:1],,1,,6h[8:1],,,6h[8:1]/8h[8:1],,,6h[1:0]/4h[1:0],,
{12}
3h[1:0],4h[1:0],3h[1:0],6h[1:0],5h[1:0],6h[1:0],
2h[1:0],3h[1:0],4h[1:0],5h[1:0],6h[1:0],7h[1:0],
{16}
1xv4[8:1]/8xv5[8:1],,,,,,,,
3-8[8:1]/6-1[8:1],,,,,,,,
2-6[16:2]/7,,,,
5,,4,,8h[8:1]/4h[8:1],,,1h[8:1]/5h[8:1],,,2h[1:0]/6h[1:0],,3/7v5[8:1],,,,5,,,,
{12}
3,4,2,
{16}
1/5,,6,,3/7<4[8:1],,,,1,,,,7>3[6:1],,,5hx[1:0],,,7hx[1:0],,
1x/5xv2[8:1],,,,8,,,,6v8[8:1],,,,2,,,,
1-5[8:1],,,,5,,7,,
8h[8:1]/4h[8:1],,,7h[8:1]/3h[8:1],,,6h[1:0]/2h[1:0],,5/1v3[8:1],,,,7,,,,
{12}
6,5,7,
{16}
4/8,,3,,2>5[8:1]/6,,,,8,,,,2V86[6:1],,,5hx[1:0],,,3hx[1:0],,
1x/5x-7[12:1],,,,5-3[12:1]/3h[8:1],,,,8h[8:1]/5w1[8:1],,,,5bx,,,,
3bxV51[4:1]/7bx,,,,3/8,,,,7,,2,5,3<7[16:3],,4,,2,,3,,4/8V64[4:1],,,,
8,,2,,1,,8,,
1V37[4:1]/7,,,,1/5,,,,4,,5,4,6<1[8:1],,7,,5>2[8:1],,,,1/5<8[8:1],,,,
2>5[8:1]/5,,,1,,,7,,
5xV38[4:1]/1x,,,,5/7,,,,6,,1,5,3<7[16:3],,4,,2,,3,,4V28[4:1]/8,,,,
4,,6,,5,,4,,
2/6V48[4:1],,,,1/6,,,,2,,3,7,5<8[8:1],,4,,2>5[8:1],,,,2/8w4b[4:1],,,,,,,,,,,,
4b-1[2:1],,,,4,,,,4,,,,4,,,,
5b-8b[2:1],,,,5,,,,5,,,,5,,,,
4b-1[8:1],,,,6,,,,5b-8[8:1],,,,3,,,,
2b-6[8:1],,,,2b/8b,,,,
{12}5xv3[8:1]/7xv1[8:1],5x/7x,5x/7x,
{16}5bx/7bx,,,,
2hx[16:3],,,4,3,,3,,4/6h[16:3],,,5,6,,6,,
4h[16:3]/7,,,5,3,,3,,2h[16:3]/5,,,4,3,,3,,
6h[1:0],5h[1:0],6h[1:0],3h[1:0],4h[1:0],3h[1:0],
7h[1:0],6h[1:0],5h[1:0],4h[1:0],3h[1:0],2h[1:0],
1h[1:0],8h[1:0],7h[1:0],6h[1:0],5h[1:0]/1-5[4:1],,,,,,,,
7w3[8:1],,,,7b,,,,
1-5[8:1],,,5,1,,7,,
8-4[8:1],,,4,8,,2,,
1h[8:1],,5x,,3h[8:1],,8x,,
{12}2x,6,5x,
{16}4/7,,2x,,
8-4[8:1],,,4,8,,2,,
1-5[8:1],,,5,1,,7,,
8h[8:1],,4x,,6h[8:1],,4x,,
{12}7x,3,4x,
{16}2b/5,,7x,,
1>4[8:1],,,4,1,,6,,
8<5[8:1],,,5,8,,3,,
1h[8:1],,5x,,3h[8:1],,5x,,
{12}1x,6,5x,
{16}7/4,,2x,,
8<5[8:1],,,5,8,,3,,
1>4[8:1],,,4,1,,6,,
{12}
8h[1:0],2h[1:0],1h[1:0],4h[1:0],6h[1:0],5h[1:0],
4xv1[8:1]/7xv5[8:1],4x/7x,4x/7x,
{16}4bx/7bx,,,,
1x>5[16:3]/5x,,,6,1,,7,,
1q5[8:1],,,5,1,,3,,
2h[8:1],,4x,,8h[8:1],,6x,,
{12}2,4,3x,
{16}1/5,,6x,,
7x/5>1[16:3],,,8,5,,7,,
5p1[8:1],,,2,5,,3,,
5h[8:1],,8x,,3h[8:1],,5x,,
{12}1,6,5x,
{16}8/4,,3x,,
8<4[16:3]/2x,,,3,8,,2,,
8p4[6:1],,,4,8,,6,,
8h[8:1],,2x,,6h[8:1],,4x,,
{12}8,3,4x,
{16}6/2,,8x,,
{12}
2h[1:0],1h[1:0],2h[1:0],7h[1:0],8h[1:0],7h[1:0],
3h[1:0],2h[1:0],1h[1:0],8h[1:0],7h[1:0],6h[1:0],
{16}
4x/5x,,3,4,3,,2/7,,1bw5[8:1]/8b,,,,1b,,,,
3hx[2:1]/7hx[1:0],,,,6hx[1:0],,,,4hx[1:0],,,3hx[1:0],,,5hx[1:0],,
6hx[2:1]/4hx[1:0],,,,5hx[1:0],,,,7hx[1:0],,,6hx[1:0],,,5hx[1:0],,
4hx[2:1]/3hx[1:0],,,,2hx[1:0],,,,1hx[1:0],,,5hx[1:0],,,3hx[1:0],,
4hx[2:1]/6hx[1:0],,,,7hx[1:0],,,,8x-4[8:1],,3h[384:1],,8b,,,,
1h[16:3],,,4,2,,3,,4/7h[16:3],,,5,6,,4,,
3h[16:3]/6,,,5,3,,4,,2h[16:3]/5,,,4,3,,5,,
{12}
6h[1:0],5h[1:0],6h[1:0],3h[1:0],4h[1:0],3h[1:0],
7h[1:0],6h[1:0],5h[1:0],4h[1:0],3h[1:0],2h[1:0],
{16}
8hx[8:1]/1hx[8:1],,,7hx[8:1]/8hx[8:1],,,8hx[1:0]/1hx[1:0],,
1xv6[8:1]/2xv5[8:1],,,,2b,,,,
4b/7bqq4[8:5],,,,,,,,1>3[12:1],,,,1,,,,
5v2[8:1]/6v1[8:1],,5,,5,,,,
8h[4:1],,,,
{32}1bx,2x,3x,,5x,6x,7x,,
{16}
1x-3[12:1],,3v8[8:1]/5,,1,,4,,6,,1,5,3>8[8:1],,2,,
7<4[8:1],,,,1>4[8:1]/7,,,,4,,,6,,,8,,
2/6-4[12:1],,3/4v7[8:1],,1/6,,2,,3,,6,4,8>4[16:3],,1,,6,,7,,8V64[4:1],,4,,8,,2,,1,,8,,
1-3[12:1]/7,,5/3v8[8:1],,1,,6,,5,,6,5,7>2[8:1],,1,,3b<6[8:1],,,,3b/7>2[8:1],,,,
4<7[8:1]/7b,,,3bx,,,1bx,,
2bhx[8:1]/8bx,,4,3,5,,2,,4/6,,7,,3/5,,2,,
1h[8:1]/7,,8,2,1,,2/8,,3v8[8:1]/7v4[8:1],,5,,3,,,,
1/5h[8:1],,2,4,3,,6,,2/8,,3,,1/7,,6,,
5h[8:1]/3,,4,6,5,,4/6,,3v5[8:1]/7v1[8:1],,8,,3,,,,
8h[16:3]/4,,,5,6,,4/7,,1h[16:3]/6,,,4,3,,2/5,,
3h[16:3]/8,,,1,2,,3/8,,6h[16:3]/1,,,8,7,,6/1,,
{12}
3h[1:0],4h[1:0],3h[1:0],6h[1:0],5h[1:0],6h[1:0],
2h[1:0],3h[1:0],4h[1:0],5h[1:0],6h[1:0],7h[1:0],
{16}
1x/8x,,2,1,2,,4b/6b,,7,8-4[8:1],7,,1b/6,,2x,,
3hx[1:0],,,,6hx[1:0],,,,4hx[1:0],,,4hx[1:0],,,5hx[1:0],,
3hx[1:0],,,,6hx[1:0],,,,4hx[1:0],,,4hx[1:0],,,5hx[1:0],,
E2,,,,E3,,,,E4,,,E8,,,E7,,
E2/E6,,,,E3,,,,E7,,,E1,,,E5,,C,,,,
E
&lv_6=13+
&des_6=吃不到寿司的猫
&inote_6=(160){4},,,,4h[1:1],
5,,5,
6h[1:1],5,,5,
Ch[1:1],5,,5,
{16}7xh[16:1],,,6h[16:1]/5h[16:1],,,{8}2xh[16:1],{4}4h[16:1]/3h[16:1],A6`E6,
{2}5x/7xh[2:3],6,
8,{4}E2,3/B7,
{2}4/2h[2:3],3,
1,{8}8xpp2[8:1]*qq6[8:1],7x/1x,,,{4}8,
5/6,4/3,8/2V41-5[2:1],
1,8,7,{8}6/5,6,
{4}4/3h[8:1],1/7h[8:1],5/6h[8:1],8/2h[8:1],
{16}8,7,6,1,2,3,7,6,5-8b[8:1],2,3,4,,,,,{4}1/2h[8:1],
4b,5/6h[8:1],Cb,
{8}1/7h[8:1],{16}2,8h[8:1],,3,{8}1h[8:1],{2}4x>2[32:3]*pp6[16:3],
{4}1h[8:1],5x/2x,{8}6-1[8:1]/5-1b[8:1],7x,,,2h[8:1],
{16}8,3h[8:1],,7,{8}4h[8:1],{4}6-2[8:1],5/Cf,
1xh[8:1]/3xh[8:1],8h[8:1]/2h[8:1],{8}1,{16}7,5,{8}6,3,
{4}2xh[8:1]/4xh[8:1],1xh[8:1]/3xh[8:1],{8}2,{16}7,5,{8}6,3,
3/4,{16}2,1,{8}2,8,6/5,{16}7,8,{8}7,1,
{2}6-4<5s1[8:3],{16}A2,A3,A4,A5,A8,A7,A6,A5,
{2}1b-5b[8:1],{16}7/6,,,5/4,,,{8}2/3,
{4}1-5[8:1]*-6[8:1],1,{12}7/3,3/7,7/3,3/7,,,{4}8/2-5[8:1],
2/7-3[8:1],{16}7/4>1[8:1],,,5x,,,{8}6,
{4}8-4[8:1]/7-4[8:1],8/7,6qq4[8:1]/2pp4[8:1],6/2,
1-5[8:1],7/1,{16}6>3[8:1],,,3,,,{8}2,
{4}1p5[8:1],7/1,{16}8x>3[8:1],,,3,,,{8}4,
{4}5-1[8:1],6/5,{16}5<8[8:1],,,1,,,{8}3,
{4}1-6[8:1]/4-1[8:1],1/4,8xw4[8:1],8,
6b/1b,7/3h[4:1],{16}1V35[16:3],,,8,,,{8}7,
7x-5[8:1],5,{4}4-7[8:1],{8}8x-4[8:1],2,{4}4-7[8:1],
{8}1v4[8:1],2,{4}1v7[8:1],{8},,8/2,3,
{4}7-5[8:1]/4-7[8:1],7/4-8[8:1],{8},,1,2,
{4}3b-7[8:1]/7b-4[8:1],7/3,{16}8V64[16:3],,,1,{8}8,2,
2x-4[8:1],4,{4}5-2[8:1],{8}1x-5[8:1],7,{4}5-2[8:1],
{8}8qq7[16:3],7,{4}8pp2[8:1],{8},,8/1,7/2,
{1}6b/3b-1<8qq4[8:5],
{4}8bx,5/6h[4:3],,5,
1b,4/3h[4:3],,4,
8b,{8}5/6,{16}3,4,{4}1b,{8}3/4,{16}6,5,
8b,,,7x/5x,,,{8}3/4,{12}6/2,6/2,2/6,6/2,{24},,,,{8}1/8,
1,1/2,2,2/3,3,3/4,4,
4/5,5,5/6,6,6/7,7,7/8,8,
{16}1,1,2,2,3,3,4,4,5,5,6,6,7,7,8,8,
1x>4[8:1],,,7,{8}1,8,5x-2b[8:1]*-1[8:1],7/4,{16},,,,8x>3[8:1],
,,7,{8}8,6,{16}5-7[8:1],,,4,{8}5,3,
{16}2/8<5[8:1],,,1,{8}8,2,{12}3,4,3,2/5,{24},{8}7x,
{16}1x<6[8:1],,,2,{8}1,3,{16}4-2[8:1],,,5,{8}4,6,
{16}7/1>4[8:1],,,8,{8}1,7,{12}6,5,6,4/7,{24},{8}8x,
{16}3x<6[8:1],,,1,{8}3,8,{16}7-1[8:1],,,5,{8}7,4,
{16}3/8<5[8:1],,,1,{8}8,2,{12}3,4,3,2/5,{24},{8}1x/6x,
{16}8x-4[8:1],,,1,{8}8,2,{16}3-7[8:1],,,4,{8}3,5,
{2}8x-4b[8:1]/6x-1[8:1],{12}7/3,3/7,7/3,3/7,{24},,,,{8}1x/2x,
{16}3,5,{8}4,6,7/5,8,{16}4,6,{8}2,
4/3h[4:1],1b,4h[4:1],1b,3h[4:1],1b,4,1b,
8x/7x,{16}6,4,{8}5,3,2/4,1,{16}5,3,{8}7,
5/6h[4:1],8b,5h[4:1],8b,6h[4:1],8b,5,8b,
1/2,{16}3,5,{8}4,7,8/6,5,{16}3,4,{8}2,
6h[4:1],8b,5h[4:1],8b,4h[4:1],8b,3h[8:1],8b,
{12}7xh[12:1],5xh[12:1],6x,3xh[12:1],4xh[12:1],2x,8xh[12:1],5xh[12:1],6x,3xh[12:1],4xh[12:1],1x,
{2}8bx<6v4[4:1],{4}2-5b[8:1]*-6[8:1],2x,
7h[1:1],B6/E6,,B6/E6,
3h[1:1],B4/E4,,B4/E4,
5h[1:1],B7/E7,,B7/E7,
1x-4>3-5[8:3],6,7-3b[8:1],{32}7,Cf,,,,,,,{8}2x,
{16}3,4,{8}3,7,1,{16}6,5,{8}6,2,
8,{16}2,4,{8}3,7,1,{16}7,5,{8}6,2,
B7,{16}3,3,{8}B7/E7,{16}3,3,{8}B7/E7/B6,{16}3,3,{8}A7/B7/E7/B6,{16}3,3,
5xv6-4[16:3],,,5,,,{8}3,{4}1>4b[8:1]*V35[8:1],1x,
{32}6xpp3[2:1],7x,{16}8x,,,,,,,{4}3,1-5[8:1],
{8}5-2[8:1],7,{4}1-6[8:1],{8}6-3[8:1],7x,{4}8,
{8}1x-5[8:1],7,{4}5qq3[8:1]*pp7[8:1],{8},,4x>1[8:1],6,
{4}7p3[8:1],8>3[8:1],{2}5-7[32:3]*v4[16:3],
{4}8b,1x/3xh[4:1],{8}4,{16}6,5,{4}8x-4[8:1],
{8}4-7[8:1],2,{4}8-3[8:1],{8}3-6[8:1],2x,{4}1,
{8}8x>3[8:1],6,{4}5w1[8:1],5,{8}7-5[8:1],3,
{4}4-8[8:1],1-3[8:1],6,7x/3x,
8b-4[8:1],{8}2/8>3[8:1],1,5-1[8:1],6,{4}7,
{8}8/2,{16}3,5,{8}4-8b[8:1],6,{4}4pp3[4:1],2,
1b-5[8:1],{8}6/1<6[8:1],8,4-8[8:1],3,{4}2,
{8}1/7,{16}6,4,{8}5-1b[8:1],3,{4}5qq5[4:1],7,
8b<5[8:1],{8}4-8[8:1],2,1>4[8:1],2,{4}3h[4:1],
{8}5x,{16}6,5,{8}8w4b[8:1],2,{4}8qq1[4:1],2,
4b-1[8:1],{8}8-4[8:1],6,5-8[8:1],6,{4}7x,
{32}2/7,3x,{16}4x,,{32}2/7,3x,{16}4x,,{32}3/8,4x,{16}5x,,{32}8/3,4x,{16}5x,,C,,,,
{4}6xh[4:15],E5,,E4,
,E3,,E2,
,E1/B8,,B6/E7,
,B4/E5,,E3/B2,
E
