&title=神鳴
&artist=Rígr feat. 光吉猛修
&first=0
&des=LAO MA (LeafaeL & Maboroshi)
&des_5=LAO MA (LeafaeL & Maboroshi)
&lv_5=14+
&inote_5=(205){4},{1},{4},,{16},,{24},5x/4xp6v1[3:4],
6x/3xv5<8b[24:31],
{1}2x/7x,
{8},,,,,,,,E6h[1:2],
E5,E4,B6h[8:13],C,B2,{4}E7h[4:5],
{8},,,,,,,,E1,
,,,,E3,E4,E5,
,,,,,E1,E8,E7,
E4h[1:2],E5,E6,B3h[8:13],C,B7,{4}E3h[4:5],
,,,,{1}E1f,
{8}3,6,4/5,3,6,4/5,{4}5x/4x-2b[8:1],
{24}8/4-6-3-7-2-8[2:3],7,{12}6h[3:11],{1},{4},,,{12},{1}7x-5-8-4-1-3[2:3]*-5-8-4-1-3[2:3],
{8},,,,,,,,7/5,
4,3/5,{16}6,4,6,4,{8}6,{4}3h[8:1]/5h[8:1],
{8}2/4,5,6/4,{16}3,5,3,5,{8}3,{4}6h[8:1]/4h[8:1],
{8}5/4,3,1/2,8,{16}4b,7,3b,6,2b,5,1b,4,
{4}8b-5[8:1]*z4[8:1],,{8}8x-4[8:1],1/7,{4}8,
{8}2-4[8:1],5,2,6,5-1[8:1],7,5,6,
8-3[8:1],7,8,6,4-2[8:1],5,4,6,
1/7,6,5/4,3,{16}2,4,2,4,{8}2,5,
3,6,{16}4,5,{8}4,6h[8:1],4h[8:1],5h[8:1],3h[8:1],
7-5[8:1],4,7,3,4-8[8:1],2,4,3,
1-6[8:1],2,1,3,5-7[8:1],4,5,3,
8/2,3,4/5,6,{16}7,5,7,5,{8}7,4,
{16}6,7,8,1,4,3,2,1,{24}5,4,3,2,1,8,{4}7/3,
{8}2-5[8:1],6-8[8:1],2,6,3-1[8:1],7-4[8:1],3,7,
8>2[8:1],5-7[8:1],8,5,3-8[8:1],3x-6[8:1],,,1x,
2,3/4,5,{16}4,6,4,6,{8}4,5,
3,7,{16}4,6,{8}4,7h[8:1],1h[8:1],8h[8:1],2h[8:1],
7-4[8:1],3-1[8:1],7,3,6-8[8:1],2-5[8:1],6,2,
1<7[8:1],4-2[8:1],1,4,6-1[8:1],6x-3[8:1],,,8x,
7,6/5,4,{16}5,3,5,3,{8}5,6,
{16}1xh,4h,3,4,2h,5h,4,5,3h,6xh,5,6,{4}3xh[8:1],
{1}Ch[2:7],
,,,{16}3,
4,3,4,{4}3-1v4[4:1],{8}3,6h[4:1],{16},,,,7,
5,7,5,{4}7-1-5[4:1],{8}7,4h[4:1],,,3,
{16}3,4,{8}2-6[8:1],5-8[8:1],2,5,4,3,
7,{16}7,5,{8}6-1[8:1],2-6[8:1],6,2,8,7,
{16}6,5,6,5,{4}6-1-5[4:1],{8}6,3h[4:1],{16},,,,2,
4,2,4,{4}2-8-4[4:1],{8}2,5h[4:1],,,6,
{16}6,5,{8}7-3[8:1],4-8[8:1],7,4,5,6,
2,{16}3,4,{8}3,5,7/2-4b[8:1],7,{4}7/2,
{24}8xh,7xh,6xh,1bx,{48},{16}8,1,8,1,8,{24}1xh,2xh,3xh,8bx,{48},{16}1,8,1,8,1,
{24}8xh,7xh,6xh,1bx,{48},{16}8,1,8,1,8,1,2,3,4,1,8,7,6,
{24}4xh,3xh,2xh,5bx,{48},{16}4,5,4,5,4,{24}5xh,6xh,7xh,4bx,{48},{16}5,4,5,4,5,
{24}4xh,3xh,2xh,5bx,{48},{16}4,5,4,5,4,5,6,7,8,4,3,2,1,
{24}6xh,7xh,8xh,5bx,{48},{16}1,5,1,5,1,{24}5xh,4xh,3xh,7bx,{48},{16}2,7,2,7,2,
{24}7xh,6xh,5xh,2bx,{48},{16}4,2,4,2,4,1,2,3,4,8,7,6,5,
{8}1,1h[8:1],3,3h[8:1],5,5h[8:1],{16}1,8,7,6,
{8}4-8[8:5],4h[8:1],{16}5,6,{8}7,{16}4-8b[8:1],3,{8}2,{4}4b
,
{2}2-6[8:1]/6-2[8:1],8b/4b,
{4}6/3,{8}5,3,{4}6h[8:1]/4h[8:1],6h[8:1]/4h[8:1],
{2}3-7[8:1]/7-3[8:1],1b/5b,
{8}6/2,2,{16}6,5,{8}7,{16}3,4,{8}2,7/1,7/1,
{2}2-6[8:1]/6-2[8:1],8b/4b,
{4}5/3h[8:1],{16}6,4,6,4,{8}7,7,3/5,5/3,
{32}2V84[8:1]/6V84[8:1],7/1,{16}8,,,,,,,3,5,{8}3,2/6,6/2,
{12}1b,1,1,3b,3,3,5b,5,5,7b,7,7,
{1}Ch[4:7],,
{12}B6,B5,B4,A8,A7,A6,B2,B1,B8,A4,A3,A2,E7,B5,B8,E3,B4,B1,E7,E5,E3,E1,,,
6b,5,6,3,4,3,6,5,7,3,4,2,7b,8,6,2,1,3,7,8,7,2,1,2,
7b,7,7,{24}5,6,7,8,1,2,{12}6b,6,6,{24}8,7,6,5,4,3,
6,7,8,1,2,3,45,6,7,8,1,2,36,7,8,1,2,3,45,6,7,8,1,2,
{4096}3bxv2-8b[4:2],7bxv6-4[4:2],{2048},{1024},{512},{256},{128},{64},{32},{16},{8},{4},{2},
{12}1/5,2,3,4/5v2[8:1],,,6/5^8[8:1],,,5/4v7[8:1],,,3/4^1[8:1],,,5/4,,6,8,7,8,16,,,
1/7^5[8:1],,,7-3[8:1]/2,2,2,2-4[8:1]/7,,,2/5,,,6/5,,4/7,6,5,6,5x-1[8:1]/6xs2[8:1],,,5x/6x,,,
{12}8x/3x,7,6,5/4v7[8:1],,,3/4^1[8:1],,,4/5v2[8:1],,,6/5^8[8:1],,,4/5,,3,1,2,1,83,,,
{24}8,7,6,5,4,3,{12}1,1,1,{24}4,5,6,7,8,1,{12}3,3,3,1,5,7,1,5,3,{16}7,6,5,4,{20}8,1
,2,3,4,
{16}6h[8:1]/5h[8:1],
,,7h[8:1]/4h[8:1],,,{8}8h[16:1]/3h[16:1],{24}2/1x,3/8x,4/7x,5/6x,,,{16}3h[8:1]/4h[8:1],,,2h[8:1]/5h[8:1],
,,{8}1h[16:1]/6h[16:1],{24}7/8x,6/1x,5/2x,4/3x,,,{4}2h[8:1]/8h[8:1],4h[8:1]/6h[8:1],
,,,,,,,,{1}A4h[2:3]/A3h[2:3]/A6h[1:1],
{2},A8h[1:2],
{1}A7h[2:3]/A2h[1:1],
{2},A4h[2:3],
{1}A3h[1:1]/A6h[2:1],
{2}E8h[32:97],E1fh[2:5],
{1}E2h[32:66],
,,4h[4:3]/5h[4:3],
7/3>2q4-2-8[1:3],
{2}6xh[4:1],7xh[4:1],
{1}8-6-4v7v4[2:5]*-6-4v7v4[2:5],
{2},2xh[4:1],
{1}3v8>2pp4[4:7],
6pp8-6-4<7[2:5]*pp8-6-4<7[2:5],
,8>3[2:1],
{4}5/4h[4:1],{8}6,3/5h[4:1],,3,4,5,
{4}6b-2[8:1],{8}6b,1bw5[8:1],,1b,,,{4}3/7,
{8}3h[16:1],6h[16:1],{16}4,5,4,5,3,4,3,4,
{8}2-5V31[4:1],5,2,8bw4[8:1],,8b,,,{8}2/6,,2-6[8:1],2,3-7[8:1],3,4-8[8:1],4,5-1[8:1],5,6-2[8:1],6,7-3[8:1],7,8-4[8:1],8,5-1[8:1],5,5/2-5[8:1],2,2/7-4[8:1],7,7/3-8[8:1],3,,,{24}5,6,7,8,,,{32}3,2,1,8,7,6,5,4,3,2,1,8,7,6,5,4,{1}3/Cfh[1:1],
{32}2x,3x,4x,5x,6x,7x,8x,1x,2x,3x,4x,5x,6x,7x,8x,1x,2x,3x,4x,5x,6x,7x,8x,1x,{4}2bx/5xh[4:1],
{16}3,4,6,7,3,4,6,7,2,3,5,6,2,3,5,6,
1,2,4,5,1-5[8:1],2<1-7[16:3]*<1-7[16:3],4,5-3[16:1]*-3[16:1],,,,,,,,,6,
5,3,2,6,5,3,2,7,6,4,3,7,6,4,3,
8,7,5,4,8,7,5,4,{8}1-5[8:1],4-2[8:1],1,4,
6-8[8:1],1,{4}6,{8}3-5[8:1],1-6[8:1],3,1,
,2,{16}5,6,3,2,{8}7-3[8:1],8,7/1-5[8:1],2,
{4}1/6,{16}7,6,4,3,{4}2/8,{16}2,3,5,6,
{4}7/1v2-4[8:1]*-4[8:1],1-7v6[8:1]*-6[8:1],1w5[8:1],1,
{16}4x,3x,7,6,2x,2x,7,6,3x,2x,6,5,1x,1x,6,5,
2x,1x,5,4,8x-4[0.2744##0.1098],8x-6[0.2561##0.1646]*-6[0.2561##0.1646],5,(273.3333)4-2[6:1]*-2[6:1],,,,,,,,,,,,(205)5x,
6x,2,3,7x,7x,2,3,6x,7x,3,4,8x,
8x,3,4,7x,8x,4,5,1x,1x,4,5,8x-5[8:1],,2>4[8:1],,8,
,2,,7,,,6,5v2[8:1],,8qq7[4:1],,5,,,,1b,
,,,1,8,2,7,3,6,4,5,3h[4:1],,,,7h[8:1],
,5h[8:1],,7,5,6,6,7b,,,,2,4,3,3,2b,
,,,7/5,,3,,6,4,5,,2,8,1,,3/7,
,,,5-1[8:1]/1-5[8:1],,,,,,,,7b/3b,,,,,,,,6/5,
,,,2,4,3,,7,5,6,,3/4,
,,,4-8[8:1]/8-4[8:1],,,,,,,,2b/6b,,,,,,,,7,
1,7,1,7,,2,8,2,8,2,,C,
,,,2-6[12:1],,,,1-5[12:1],,,,8-4[12:1],,,,7-3[12:1],
,,,2p6[12:1],,,,1p5[12:1],,,,8q4[12:1],,,,7,
,,,8q5[8:1]/1p4[8:1],,2/7,,1/8,,,,2v5[8:1]/7v4[8:1],,1/8,,2/7,
{32},,,,,,1,2,3,4,5,6,7,8,1,2,3,4,5,6,7,8,1,2,3,4,5,6,7,8,1,2,
3,4,5,6,7,8,{112}1bxh[112:3],,,,,,2bxh[112:3],,,,,,3bxh[112:3],,,,,,4bxh[112:3],,,,,,5bxh[112:3],,,,,,6bxh[112:3],,,,,,5bxh[112:3],,,,,,4bxh[112:3],,,,,,3bxh[112:3],,,,,,4bxh[112:3],,,,,,5bxh[112:3],,,,,,6bxh[112:3],,,,,,7bxh[112:3],,,,,,8bxh[112:3],{4},{64},,{224},,,{16}2,
1,2,1,2x,3xb/8xb,,,6,5,6,5,6x,
4xb/7xb,,,2,5,2,5,{32}E3,B3,B4,E5,E8,B7,B6,E6,{16}2b,{48},2,,,,2,,,,{16}4b,
{48},4,,,,4,,,,{16}5bh[12:1]/3bh[12:1],{48},,,,,4bh[12:1]/7bh[12:1],,,,,,,,6bh[12:1]/2bh[12:1],,,,,{96},,,,,,{32}1/5,2/6,3/7,4x/8,1,2,3,4,5,6,
7,8,1,2,3,4,{16}5bxh[4:7]/1bxh[4:7],{1},{4},,,{16},,,{64}8b/1b,
7b/2b,6b/3b,5b/4b,
E
