&title=幻日ミステリウム
&artist=Aqours
&wholebpm=151
&first=0
&des=Yoshik0 vs Yoshik1
&clock_count=4
&demo_seek=52
&demo_len=30
&lv_6=13+
&des_6=Yoshik0 vs Yoshik1
&inote_6=
(151){4},{8},,,,,C,
E7/E3,,,C,E5/E1,,,6h[8:5],
E6,B5,E5,B4,{4}E4,6v4[4:1]/3-7[4:1],
{8}6/3,,,2/5,7/4,{16}1x,2x/8x,,,,,{8}4,
2,7/3-1-4-7-5[8:3],6,3/5,{16}7x,7x,,,,,{8}3-8[8:1]/8-3[8:1],
8V25[4:1]/3V15[4:1],{4}8/3,{8}B1/B2/E3/E1,{16}A5/E6/E5,4x/6x,,,,,{8}5-1>3[4:1]/4-8<6[4:1],
5/4,{4}E6/A5/D5/A4/E4,{16},,4x/5x,4x/5x,E5,B4/B5,B3/B6,E3/E7,
{8}2x/7xh[8:3],4,3,2,5/3h[8:3],{16}B8,B1,,B4,{8}B5,
1/5xh[8:3],3,2,1,4/2h[8:3],{16}B5,B4,,B1,{8}B8,
6/3h[8:3],E6,E2,E8,4/7,{16}2/5,2/5,,8/3,{8}8/3,
{12}2b/6,4,5,3/7b,5,4,2b/6,8,1,3/7b,1,8,
{4}6/2>3<4<5<6<7>8>1>2b[4:3],5h[2:1],{8},,,,4b,
,,3,{16}5,,,4h[16:1],{8}6-1[8:1],3,
{16}1,,,3,,,{8}7,{16}2,,,6h[16:1],{8}4v1[8:1]*v7[8:1],5,
{16}4,,,6x,,,{8}4,{16}3/5,,,6/2,{4}6/2h[8:1],
{16}5h[16:3],,,6h[16:3],{8}4,8h[8:1],{16}1h[16:3],,,2h[16:3],{8}8V64[4:1]*p4[4:1],3,
{2}A8,{16}7h[4:1],,,4,{4}3>8[4:1],
8<5[4:1],5>2[4:1],2<7[4:1],7p3[4:1],
{8}3v8[4:1],{16},,,,5x,6x,{8}7xv2[4:1],{16},,,,6x,5x,
{8}4xv1[4:1],{16},,,,5x,6x,{4}7xh[4:1],4,
{8}6h[8:1],4>3>2<1<8<7[8:5],,4,5,6,{4}7z3[4:1],
3x<6[4:1],6xv8[4:1],8x>2[4:1],2x-4[8:1],
8x,{8}3h[4:1],C,7h[4:1],C,2h[4:1],C,
4h[8:1],C,,3,5/6,7,1/2-6[8:1],3,
{4}4-1[8:1]/2-4[8:1],2x/4x,{16}5,,,7,{8}8x-4b[4:1],1x,
{4}4x>2b[4:1],2x-6b[4:1],6x<8b[4:1],5x,
4b,{16}6,8/7,,5,{8}2,{16}1,3,,2/7,{8}7/2h[16:1],
{16}3,4,5,6,{8}2/7,7/2,1w5b[8:1],{16}2,8,,,,,{4}7b,
{16}1V35[16:3]/2V46[16:3],,,5V71[16:3]/6V82[16:3],,,,,,,,3,
4h[8:1],6h[16:1],,,{4}5/3x-1[8:1]*-8[8:1],3x-6[8:1]*-5[8:1],3x>6[8:1]*p6[8:1],
3bx,{8}5-8[8:1],4/6,{16}5/2h[8:1],,,1,,,{8}7/3,
{12}6h[6:1],8,3h[6:1],1,{6}7h[6:1],{12}1x-4<5[8:1]*<8-5[8:1],2x/8x,{3}2x/8x,
{16}6b/2b,,,8b/4b,,,{8}2bh[16:1]/6bh[16:1],{16},3b/7b,,,{8}2b/1b-4b[8:1]*-6b[8:1],3b/8b,
{2}1x,{4}6h[4:1],{8}7,8,
{4}1bq6[8:1]/5bq2[8:1],5/1,{16}4/5<8[8:1],,,3,{8}3,2,
{4}4>1[8:1]/1<6[8:1],4/1,{16}8/4-1[8:1],,,5,{8}5,6,
7b-4[8:1],7,8b-5[8:1],8,1b-6[8:1],1,2b-7[8:1],2,
{4}7,{8}8v5b[8:1]*v3[8:1],{16}7,1,{8}8,,,6,
4/2h[8:3],,,5h[8:1],7h[8:1],6h[8:1],8-5[8:1]*-3[8:1],1,
{4}8-4[8:1],8x/5x-8[8:1]*-2[8:1],5-1[8:1],2x/5x,
{8}3>1[8:1],5h[16:1],6<8[8:1],4h[16:1],3-1[8:1],5h[16:1],6-8[8:1],4h[16:1],
3v1[8:1],5h[16:1],6,7,8x-3[8:1],8x<5[8:1],8x-4[8:1],8x,
{4}8xV25[8:1],8-6[8:1]/2-4[8:1],8/2V85[8:1],2-4[8:1]/8-6[8:1],
8/2,1<6[8:1]/8>3[8:1],8-4[8:1]/1-5[8:1],8qq5[4:1]/1pp4[4:1],
{8}8x/1x,,,2/6,1/8,3/5,2/7,3/8,
{4}1/5h[4:1],{8}7h[8:1],4,6/2,3/1,{4}6pp4[4:1]/2qq4[4:1],
{2}6/2,{4}4h[8:1]/5h[8:1],1h[8:1]/8h[8:1],
3q8b[8:1]/6p1b[8:1],6/3,3>8b[8:1]/7<4b[8:1],3/7,
{8}5/3xh[8:1],{16}B7,E7,{8}4/6xh[8:1],{16}E5,B5,{8}2/4xh[8:1],{16}B8,E1,{8}3/1xh[8:1],{16}B6,E7,
{8}1/7x,,,7/4,7>3v5[4:1],5,{4}5v8[8:1]*v2[8:1],
{16},,,,7V53[4:1],,,2,{4}7,1V36-1[4:3]*V74-1[4:3],
{1}1b,
{8}3/5h[8:1],8h[8:1],6h[8:1],7,1/5h[8:3],{16}4,4,,3,{8}3,
6/4h[8:1],1h[8:1],3h[8:1],2,8/4h[8:3],{16}5,5,,6,{8}6,
{16}3,4,6,5,2,4,7,5,{32}1,2,3,4,8,7,6,5,2,3,4,5,{8}6bx/2bx,
,4v1[8:1]/8-5[8:1],{4}3/5-7-4-1-3[4:1],
E
