&title=终の舞姬
&artist=se-U-ra
&first=-0.8499995
&lv_4=1
&des_4=
&inote_4=
(125){4},
&lv_5=14+
&des_5=HsuNeko
&inote_5=
(202){4},,,,{6}5,
5,5,5,6,7,
,2,3,4,{12}4,5,{6}4,
E7,4,5,4,3,2,
3,4,{12}5,4,{6}5,{12}6,5,4,3,
{6}C,7,7,7,,6h,
C,2,2,2,,3h,
,1,2,1,{12}8,7,{6}6,
6/5,{12}4,3,{3}2,,{2}6/1-4-1[4:3],
{6}5b-8b[8:1],{48}E5,{24},{48}C,{24},E1,{6},{12}7xh,
6h,5h,1/4h[4:1],,8,8,1h,2h,3h,{6}4/5h[3:1],
{12}6,6,7,7,8,8,,7,1,6,2,6,
3,6,4,6,5,6,7,6,8,6,7,6h[3:1],
{3},E1/E5,E3/E7,
{24}E6/E2,B1/B5,{12},{6}E1/E5,E8/E4,E7/E3,E2/E6,Cfh[3:2]/E1h[3:2]/E5h[3:2],
{1},{4},{12}5x,
6x,7x,8x/5x,4x,3x,2x,{6},1/8,
{12}2/7,7/2,,C,{6}5/4,{12}6/3,3/6,,C,
2,2,3,3,{6}4x,{12}7,7,6,6,{6}5x,
4/3,{12}1/6,1/6,{6},2/1,{12}4/7,4/7,{6},{12}6/8,
1,2,3,4,5,6,7,8x/E1,1x/B1,{6}2x/B2,
{12}3x-5[12:1],3x,7,7,,8,8,7-4[12:1],7,{6},{12}3,
2,1,8,7,6,7,8,1,{3}2,
{6}3/7,{12}8/2,8/2,,1,{6}3/7,{12}4/6,4/6,,5,
5,4,6,3,7,2,{24}8,1,8,1,8,1,{12}2,3,4,
5x/6x,6/5,7/4,4/7,{6},{12}4/3,4/3,5/2,2/5,,B4/B3,
C,B7/B8,C,B6/B5,C,{24}B1/B2,E3,{12}B3,E4,{3}E5/B4,
{12}2,2,3,4/1,{6},{12}7,7,8,1/6,{6},{12}2/1,
3,4,6,7,8,1,2,3,4/5,{6},{12}6-3[12:1],
6,2,2,{6},{12}7-2[12:1],7,2,2,{6},{12}3,
4,5,6,7,8,1,2,3,4<4[6:5],{4},{12}E6,
E5,E4,E3,E2,E1,E8,E7,E6,{6}E5,
{12}5,6,7,6,7,8,7,8,1,8,1,2,
{4}3xz7p7[2:1],{2},{4}5,
{1}5bp5s1b[2:1],
{4}1b,7b/1b>1b[2:7],{6},{3}3bh[12:1],
{6}5b,{12}5b,6b,,6b,{6}7b,{12}7b,1b,{6},{4}1b,
2bxv7b[6:1],{12},Cf,,{4}2bxV48b[6:1],
{12},Cf,{4},,,{12},{2}1b<1b[4:15],
2bh[4:1],
{6}3b,{12}3b,4b,,4b,{6}5b,{12}5b,6b,{6},{3}6bxp2b[6:1],
B3f,{12},{4}6bxpp3b[4:1],
{12},B3f,{4},,{12},{4}8b,
{1}Cfh[4:1]/8b>8q4q8b[4:15],
{6}1,{12}1,2,,2,{6}3,{12}3,4bp4b[4:1],{16},,,{48},{24}E4f/E5f,
{4},,,{12},,{6}6,
{12}6,5,,5,{6}4,{12}4,3,{6},{4}1bV74q6V82>5<5b[4:15],
{12}3,,3,{6}5,{12}5,7,,7,
{6}1,{12}1,2,,2,{6}3,{12}3,4,,4,
3h,2h,1h,8h,7h,6h,5h,6h,7h,8h,1h,2h,
3,6,2,7,1x,8x,2x,7x,E3f,B6f,E4f,E5f,
5x,6x,7x,1x,2x,3x,5x,6x,7x,{6},{12}1,
8,1,8,2,7,3,6,2,1,8,7,8,
1,2,3,4h[6:1],,5h[12:1],,6,{3}6,
{12}7,6,8,5,1,4,2,3,2,2h[6:1],{6},{12}3,
4,2,6,5,7,3,4,1,6,5,8,
2,4,1,7,5,8,7,6,5,{24}4,3,2,1,{12},8x/7x,
7,7,7,,1x/2x,2,2,{3}2,
{12}2,7,3,6,2,7,{24}3,4,{12}5,6,5,{6}4,
{12}2,8,4,5,1,7,{24}5,4,{12}3,4,5,{6}6,
{4},4h[8:1]/5h[8:1],,C,
{1}8-5>4>1[2:3]/4-1<8<5[3:2],
{3}8xh[4:1],{12}7,6,{2}5,
{1}1<1[4:9],
{3}8h[4:1],{12}7,6,{4}5,4,
2,8,{2}7>7[4:5],
{3}4h[4:1],{12}5,6,{4}7,1,
{1}3>3[2:5],
{3}5h[4:1],{12}4,3,{4}2,8,
6,4,2,8,
{1}C,
,Ch[1:1],
E1/E5,
{12}1/4,1/4,1/4,1h[6:1]/4h[6:1],{6},{12}8/5,8/5,8/5,5h[6:1]/8h[6:1],{6},{12}2,
7,3,6,2,7,8,{24}1,2,{12}3,4,5,2xh[12:1]/6h[12:1],
{24},1x/5x,4x/8x,7x/3x,{12}6x/2x,5,1,7,{24}2,6,2,6,{12}2,3,{6}7,
{12}8/1,8,1,2/7<5b[12:1],{6},{12}7/2,1,8,8/1>4b[12:1],{6},{12}1,
8,7,6,5,4,3,2,1,{24}8,7,6,{96}5,{48},{96}8x,{48},{32}7x,6x,
{12}5x,8,8,8w4[24:1],{6},{12}8,1,1,1w5[24:1],{6},{12}1,
E4/E8,E7/E3,E6/E2,B5/B1,B8/B4,8/4,8/4,8/4,8h[4:1]/4h[4:1],{4},{12}1/5,
7/3,6/2,5/1,4/8,1/5,2/6,3/7,4/8,{24}5,6,{12}7,
8,1,2,3,4,5,6,{24}7,6,7,6,{12},{24}5,4,3,2z6[8:1],
{12},2,2,2,{6},{12}6,6,6,2/6s2[12:1],{6},{12}2,
3,4,5,6,7,8,1,2,3,{6}4/5,
{12}5/4,6,5,7,3,4,2,8/1,8/1,2/7,2/7,2/6,
{6}2-5b[12:1]/5-2b[12:1],{12}1,1-4b[12:1],{3},{12}8,8-5b[12:1],{6},{12}7,
7,7,7,6,7,5,7,4,7,{24}3,2,1,8,
{12}7x/6x,6/5,5/4,4/3,{6},{12}3/2,4/3,5/4,6/5,{6},{12}7,
6,8,5,{24}7,6,5,4,{12}3,2,4,3,{6},{12}6,
6,5,7,3,3,4,2,2,{24}2,3,4,5,{12},6,
6,5,7,5,4,3/6,2/3,7/6,{24}1xh,2,8,7xh,{12}5h,
3,2,2,2,,8,7,7,7,7,,C,
2/5,3,4,{24}3,2,{12}1,8b,6/8,6/4,3x/4x,2x/4x,{24}4,1,{12}4,
4/7,6,5,6,{24}7,8,{12}1,{24}7,8,1,2,{12}3,4h[24:5],{6},{12}6/3,
2,1,8,7,6,{24}4,5,4,5,{12}4,3/6,2,1,
8,7,6/5,4,3,{24}2,1,2,1,2,3,{12}4/5,6/7,8/7,1bh[12:1]/8bh[12:1],
{1},{2},8z4q1[12:61]/4z8q1s5[12:61],
{6}E2,E3,{3}E4h[12:7],{4},{12},,E6,
,E7,,E8h[2:1],{2},{6}1,
2,3,4,5,6,
7,8,{12}7,6,{6}5,,4,
2,8,6,3,{3},{1}C,
&lv_6=1
&des_6=
&inote_6=
(125){4},
