&title=Felis
&artist=M2U
&first=0
&des=Slippin' Jimmy
&lv_5=13+
&inote_5=(155){4},,,,
{8}2h[8:3],,,4h[8:3],,,8h[8:3],,,5h[8:3],,,1h[8:2],,3h[8:2],,
4h[8:3],,,6h[8:3],,,8h[8:2],,5h[8:2],,2h[8:1],4h[8:2],,3,2/5,,
{8}6-8[12:1]/5,,3,,2-4[12:1]/4,,6,,
7-5[12:1]/5,4,3,,2-4[12:1]*-8[12:1]/4,,,,
7-5[12:1]/5,4,3,,2-4[12:1]/4,,6,,
7-5[12:1]/5,,3,2,1-3[12:1]*-7[12:1]/4,,,,
{8}3/6,2-4[12:1],,6-4[12:1],,3,,5/2,
1,7-5[12:1],,3-5[12:1],,6,,4/7,
3-5[12:1],,6-3[8:1],,2-6[8:1],,7-2[8:1],,
1-5[8:1],,5-2[8:1],,7-3[8:1],7,1b,,
{8}2h[8:1]/5-7[12:1],,,3,2h[8:1]/8-6[12:1],,,3,
2h[8:1]/5-7[12:1],,,3,2/8-6[12:1],2,1,,
6h[8:1]/1-3[12:1],,,7,6h[8:1]/4-2[12:1],,,7,
6h[8:1]/1-3[12:1],,,7,6-4[12:1]/4-2[12:1],6,,,
2/5-7[12:1],2,,3,2/8-6[12:1],2,,3,
2/5-7[12:1],2,,3,2/8-6[12:1],2,1,,
6/1-3[12:1],6,,7,6/4-2[12:1],6,,7,
6-4[12:1]*-8[12:1]/1,6,,,{16}6,,5,5,8b,,,,
{4}1-7[12:1]/7-5[12:1],,6-2[8:7]/2-6[8:7],,
,,,,
1-7[12:1]/5-3[12:1],,1-5[8:7]/5-1[8:7],,
,,,,
{8}8-4[16:3]/4,,5,3,2,,1/6-2[16:3],,
1,3,4,,5-2[8:1]/8-5[8:1],,,,
1-5[16:3]/4,,5,6,7-4[8:1],,3-8[8:1],,
6-4[16:1],,3,2,6-4[16:1],3,2,6-4[16:1],3,2,6-4[16:1],3,2,6,3-7[12:1],,
{16}6b,,,,5/1-6[12:1],2,3h[8:1],,{8},,7-2[8:7]/5h[8:2],,
,4h[8:2],,,3h[8:1],,3-7[12:1],,
{16}6b,,,,5/1-6[12:1],2,3h[8:1],,{8},,7-2[8:7]/5,5,
,4,4,,3,3,3-7[12:1],,
5-8[12:1],,4-7[12:1],3,5-1[12:1],,4-8[12:1],3,
5-2[12:1],6,3-7[12:1],,5-8[12:1]*-2[12:1],6,,,
1-4[12:1]/7,,8-3[12:1],7,1-5[12:1],,8-4[12:1],7,
1-6[12:1],2,7-4[12:1],,{16}1-4[12:1]*-6[12:1],2,3,,1b,,,,
{8}5h[8:3]/2,,,7h[8:3],,,6h[8:3],,,8h[8:3],,,4h[8:2],,6h[8:2],,
7h[8:3],,,1h[8:3],,,3h[8:2],,4h[8:2],,5h[8:1],2h[8:2],,4,3/5<1[16:5],,
{8}4,,5,4,3^1[12:1]/1,,5<1[16:5],,
4,,5,4,3^1[12:1]/1,,5<1[16:5],,
4,4,,3,3/1^3[12:1],,5<1[16:5],,
4,,5,5,4^1[8:1]/1^6[8:1],,,,
{8}3/5,2^4[12:1],,6^4[12:1],,3,,5/2,
1,7^5[12:1],,3^5[12:1],,6,,4/7,
3^5[12:1],,7^5[12:1],,2^5[8:1],,8^5[8:1],,
1>5[8:1],,5>1[8:1],,8<5[8:1],8,3b,,
{8}2h[8:1]/4^6[12:1],,,3,1h[8:1]/8^6[12:1],,,3,
2h[8:1]/5^7[12:1],,,4,3/8^6[12:1],2,1,,
6h[8:1]/8^2[12:1],,,7,5h[8:1]/4^2[12:1],,,7,
6h[8:1]/1^3[12:1],,,7,6^4[12:1]/4^2[12:1],6,,,
2/4^6[12:1],2,,3,1/8^6[12:1],1,,3,
2/5^7[12:1],2,,4,3/8^6[12:1],2,1,,
6/8^2[12:1],6,,7,5/4^2[12:1],5,,7,
6^4[12:1]*^8[12:1]/1,6,,,{16}6,,5,5,8b,,,,
{4}1^4[12:1]/7^4[12:1],,6<4[8:7]/2>8[8:7],,
,,,,
3^8[12:1]/7^4[12:1],,5<5[8:7]/1>1[8:7],,
,,,,
{8}8<4[16:3]/4,,5,3,2,,1/5<1[16:3],,
8,2,3,,5^2[8:1]/8^5[8:1],,,,
1>5[16:3]/4,,5,6,7^4[8:1],,3^8[8:1],,
6^4[16:1],,3,2,6^4[16:1],3,2,6^4[16:1],3,2,6^4[16:1],3,2,6,3>7[8:1]*<7[8:1],,
{4},,,,
,,,,
{8}1v2[8:1],,,5v6[8:1],,,1v3[8:1],,,5v7[8:1],,,1v4[12:1],,5p1[12:1],,
{16}3b,,,,2,2,4,4,3v8[12:1]*q7[12:1],,,,,,,,
5/6v1[8:1],,,4,,,3,,2/8,7,6,,5/1v4[12:1],,,,
7v8[8:1]*p3[8:1],6,5,,,,,,2,,4h[16:1],3,,5h[16:1],4,,
6h[16:1],5,,7,6v1[8:1],8p4[8:1],,,,,,,3v2[8:1]*p7[8:1],,2/5,,
,,,,4,5,3,5,2,,6,5,7,5,8,,3,4,2,5,1v6[8:1],,8,7,6q2[8:1],5,4h[8:1],,,,,,
3b/5b,,4,6,,1,7,,3,4,2,,6,5,8,,3,3,4,,2,5,3,5,2,6,3,5,1,6,3,4,
{4}1bp5[8:2],,6v1[8:2],,2v5[8:2],,6p2[8:2],,
{16}3b,,4,1,4,1,4,,8,5,8,5,8,,3,3,4,2,4,2,5,1,5,1,6,8,4,2,8bv5[8:1]*p4[8:1],,,,
{8},,,4h[8:3],,,8h[8:3],,,5h[8:3],,,1h[8:2],,3h[8:2],,
4h[8:3],,,6h[8:3],,,8h[8:2],,5h[8:2],,2h[8:1],4h[8:2],,5,6p2[8:1]/3v6[8:1],,,,,E
