&title=超限导能~Overchannel
&artist=犬声绘色
&first=0.05
&des=重太
&clock_count=4
&lv_5=13+
&des_5=
&inote_5=(146)
{1},
{4},,,6xpp5[4:3],2,2,3,3qq4[4:3],5,5,6,
{8}7pp6[4:3],7,4,,3,,2,,2qq3[4:3],,5,,6,,7,,7,7,64,3,2,
{16}5,4,5,,6,,74,,3,,28,,6,5,6,,3,4,3,,2,,15,,6,,73,,4,,57,,6,5,6,,7,,8/4h[8:1],,8,,3/7h[8:1],,3,,62,,62,,5/1-4[8:1],,51,,5b>7[8:3]/1b,,,,7,,6,,5V71[4:1],,,,1V35[4:1],,,,5V71[4:1],,,,1V35[4:1],,,,5<2[8:3],,,,2,,3,,4-1[4:1],,,,7,,6,,5pp8[4:2],,,,51,,,,3,,3h[8:3],,,,,,5h[4:1],,,,7h[4:1],,,,1>6[8:3],,,,7,,8,,1V75[4:1],,,,5V31[4:1],,,,1<5[4:1],,,,5>1[4:1],,,,1,,,,5pp4b[4:2],,4,,3,,,,4,,3,,2<7[8:1],,,,5pp8[4:2],,5,,8,,1,,2,,3,,4,,E8/B7,,E2/B2,,B5/B4,,1b>8[4:2],,,,6,,7,,8V24[4:1],,,,4V68[4:1],,,,8>4b[4:1],,,,4<4b[4:2],,,,8,,,,4,,5,,6pp4b[4:2],,,,5,,4,,3>6b[4:2],,,,,,,,5,,5h[8:3],,,,,,3h[4:1],,,,1h[4:1],,,,5h[4:1],,,,2,,2,,1<5[4:1],,,,5V71[4:1],,,,1V35[4:1],,,,5V71[4:1],,,,1>8[4:2],,,,5x,,4x,,3bxpp6b[4:3],,,,,,,,8h[8:1],,,,8h[8:1],,,,A8,A7,A6,A2,A1,A8,A4,A3,A2,A6,A5,A4,A8,A7,A6,A5,8xs4pp6[8:6]*z4qq2b[8:6],,,,,,,,,,,,,,,,,,,,,,,,B5,,B2,,B8,,E4,,E7/1xs5pp7[8:6]*z5qq3b[8:6],,,,,,,,,,,,,,,,,,,,,,,,E3,,B6,,B4,,B8,,E2/5x,,,,5,,5,4,6-4[8:1],,,,,,1,,1x>1[4:2],,,,C,,,,1>5<1[4:2],,,,C,,,,1>4<6<1[4:2],,,,C,,,,1b>3<5<7>1[4:2],,,,C,,,,1b>1b[4:2],,,,C,,,,1bV35b[4:1],,,,C,,,,6,,8h[8:5]/4,,,,,,,,,,4,,2h[8:5]/6,,,,,,,,,,Ch[4:1],,,,,,,,6,,8/4h[8:5],,,,,,,,,,8,,2/6h[8:5],,,,,,,,,,B3h[4:1]/E4h[4:1],,,,,,,,5,,3h[8:5]/7h[8:1],,,,,,,,,,7,,1h[8:1]/5h[8:5],,,,,,,,,,E1h[4:1]/B1h[4:1],,,,,,,,6,,8h[8:5]/4h[8:1],,,,,,,,,,4,,2h[8:5]/6<1[4:1],,,,,,,,,,Ch[4:1],,,,,,,,8b/4qq5[16:11],,,,,,,,,,,,6<8>1>2>3<4b[4:4]`6?<4[4:4],,7,,8,,,,,,,,
{8}6xh[6:1],,,8,8qq1[16:11],,,,4xh[6:1],,,2,2<8<7<6>5>4[4:3]`2?<4b[4:3],,,,4x,3,2x,1,8x<2[4:3],,,,1,8,7,6,5,4,21,87,65,43,8/1pp4b[16:15],7/5pp8[16:13],,,,,,,,,E1h[4:3]/Ch[4:3]/E5h[4:3],,,,,,,,
{16}2bx/8bx,,3,4,2,,6,5,7,,4,5,3,,21,,8b/3b,,7h[8:1],,5,,64,,3h[8:1],,5,,2,4,3,,5b/1b,,6,5,7,,3,4,2,,7,5,6,4,5,,6b/4b,,7h[8:1],,5,,64,,2h[8:1],,1,,8-4[8:1]/3,,75,,8/1>6[8:3],,,,,,7,,7qq4[4:2],,,,4,,2,,8>5[8:3],,,,,,6,,6pp8[4:1],,,,2,,4,,5xh[4:1],,,,7xh[4:1],,,,1xh[4:1],,,,3xh[4:1],,,,5qq7b[4:2]*>2[4:1],,,,,,,,,,,,,,,,7bx/1bx,,6,5,7,,3,4,2,,5,4,6,,87,,6b/1b,,2h[8:1],,4,,35,,6h[8:1],,5,,7,5,6,,8b/4b,,3,4,2,,6,5,7,,2,4,3,5,4,,3b/5b,,2h[8:1],,4,,53,,7h[8:1],,8,,61,2,3,4,5/8<3[8:3],,,,,,2,,2pp5[4:2],,,,5,,7,,1,,,,,,6,,6pp8[4:1],,,,1,,3,,5h[4:1],,,,7h[4:1],,,,1h[4:1],,,,3h[4:1],,,,5xqq8[4:5],,,,,,,,,,,,,,,,,,,,1?-5b[73#4:2],,,,,,,,
{8},,,,,,,,6,7,8b/1,
{16}2,4,3,,64,,7-2[8:1],,2-8[8:1],,7,,4,,4,,73,,7,6,51,,2,4,3,,5-1[8:1]/4,,57,,6h[8:2],,,,2,3,4,58,1-6[8:1],,,,4>6[8:3]/1,,,,5h[4:2],,,,,,,,4,,3/5-1[8:1],,24,,,,3h[4:1],,,,1,8,7,,62,,,,6-1[8:1],,1-7[8:1],,6,,3,,3,,62,,6,5,48,,2,4,3,,5-1[8:1]/4,,75,,6h[4:1],,,,8,1,2,38,1-6[8:1],,,,1/4<2[8:3],,,,7h[4:2],,,,,,,,3,,,,64,,7,7,5,,8-5[8:1],,5-7[8:1],,8,,3,,3,,84,,7,6,51,,3,,4-8[8:1],,2-5[9:1],,4>6[8:3],,2,,8h[8:4],,,,,,,,5,,6-1[8:1]/4,,53,,,,4h[8:1],,8h[8:1],,2h[8:1],,6h[8:1],,8h[8:1],,2h[8:1],,4h[8:1],,6h[8:1],,8<2[8:3],,,,3,,2,,1pp8[8:3],,,,8,,7,,6>8[8:3],,,,1,,3,,5w1[8:1],,,,,,,,7,8,7,,2,1,2,,6,5,6,,3,4,3,,5<4z8b[8:5],,,,,,,,5xs1[8:1],,,,,,,,B7/B6/E7h[4:3]/B2/B3/E3f,,,,,,,,A8,,B1,,E3,,,,1>4qq5[8:5],,,,,,,,8h[4:2],,,,,,,,4,5,3,,6,5,7,,3,4,2,,5-1b[8:1],4,6,,
E
