&title=ENGINEDESTROYER (XDRV Cut)
&artist=TONITRIBU5
&first=-0.81
&lv_5=14+
&des_5=Lukazio
&inote_5=
(204){4},{16},,,,,,,,,,,,
8/4,5/1,6/2,7/3,{4}8h[4:3]/4b<3[2:13],,,,7h[4:3],
,,,5h[4:3],
,,,4h[4:3],
,,,3h[8:5],
{8},,,,B3,
B4,B5,B6,,C,,B7,
B8,B1,{4}B2,{8}7,7V13[8:1],,7b,
,,{4}4/6b-2[8:1],6/3bV57[8:1],3/1bw5[8:1],
{16}1,Cf,,,{4}8/2-5[8:1],8/2,{8}8,4,
8/3,4,{4}8/5h[4:1],{8}8,4,8,3,
8,1,{4}1/7-4[8:1],1/7,{8}1,5,
1/6,5,1/4,4h[8:1],1,5,1,6,
1,8,1/3<6[8:1],2,3,2q6[8:1],1,2,
1-6[8:1],8,1,8,7,8h[4:1],,3,
,2,1,8/6>3[8:1],7,6,7p3[8:1],8,
7,8-3[8:1],1,8,1,2,,1h[8:3],
{4}8-5[8:1],8-3[8:1],7/8<5[8:1],4/8>3[8:1],
8b/4b-1[8:1],5/4-7[8:1],3/4>1[8:1],8/4<7[8:1],
4b/8b,{8}8/1,1,1/2,2,2/3,3,
3/4,4/5,{4}6b-3-7-2-8[8:3]/5bw1[8:3],{8},,,,,7b/3b,
,,{4}B5/B4,B6/C/B3,
B7/B8/B1/B2,{16}2,8,{8}2,{16}2,1,{8}2,{16}2v5[8:1],3,{8}2,
2b/3b,6,{16}7,1,{8}7,{16}7,8,{8}7,{16}7v4[8:1],8,{8}8,
{16}7b-3[8:1],1,{8}1,{16}7b<4[8:1],2,{8}2,{16}7b-5-8-4[8:3],3,{8}3,7,3,
1b,Ch[8:1],{4}B2/B3/E3f,{16}2,1,{8}2,{16}2v5[8:1],3,{8}2,
{16}2b-6[8:1],1,{8}1,{16}2b>5[8:1],8,{8}8,{16}2b,7,{8}7,{16}2b,3,{8}4-1[8:1],
4,{32}8bx/4bx/E8,B7,B6,E6,{16}A1/B1/A5h[1:1],A2,{8}A3,{16}A1/B1,A8,{8}A7,{16}E3/D3,E4,{8}E5,
{16}E8/D8,E7,{8}E6,{16}4,6,4,6,3,7,2,8,E3,E4,E5,E6,
E7,E8,E1,E2,{8}2x/3x,2,2/1,2,2/4,2,
2/8,2,2/5,2,2/7,2,2/6,2,
2b/1b,{32}2xh[32:1],3xh[32:1],4xh[32:1],5xh[32:1],{4}1bx-5[8:1],{16}5x-1[8:1],4,{8}3,{16}1x-5[8:1],2,{8}3,
{16}5x-1[8:1],4,{8}3,{16}6x-2[8:1],5,{8}4,{16}7x-3[8:1],6,{8}5,7b,1bxh[4:1],
,,7/6,7,7/8,7,7/5,7,
7/1,7,7/4,7,7/2,7,7/3,7,
7b/8b,{32}7xh[32:1],6xh[32:1],5xh[32:1],4xh[32:1],{4}8bx-4[8:1],{16}4-8[8:1],5,{8}6,{16}8-4[8:1],7,{8}6,
{16}4>8[4:1],5,{8}6,{16}7,6,5,4,3,2,1,8,{4}7bh[4:1]/3bh[4:1],
,1-5[8:1]/2-4[8:1],1-7[8:1]/2-6[8:1],1-5[8:1]/2-4[8:1],
1-7[8:1]/2-6[8:1],1-5[8:1]/2-4[8:1],1-7[8:1]/2-6[8:1],2-5-3[4:1],
{8}2b/8b-6[8:1],1b,8b-5[8:1],2,8-3[8:1],3,8/4-7[8:1],5,
4/8-3[8:1],1,8/4-7[8:1],5,4/8-3[8:1],1,8b,Cf,
,,{4}7-5[8:1]/8-4[8:1],8-2[8:1]/7-3[8:1],7-5[8:1]/8-4[8:1],
8-2[8:1]/7-3[8:1],7-5[8:1]/8-4[8:1],8-2[8:1]/7-3[8:1],7-4-6[4:1],
{8}7b/1b-3[8:1],8b,1b-4[8:1],7,1-6[8:1],6,1/5-2[8:1],4,
5/1x-6[8:1],1x-5[8:1],1x-4[8:1],1x-3[8:1],,,B7,B8,
B1,2x/3x,{16}3/2b-8[8:1],4,{8}5,{16}3/2b-7[8:1],4,{8}5,{16}3/2b-6[8:1],4,{8}5,
{16}1/2b-4[8:1],8,{8}7,{16}1/2b-5[8:1],8,{8}7,{16}1/2b-6[8:1],8,{8}7,{16}1/2b-7[8:1],8,{8}7,
2b/1-4[8:1],8x,{16}8x/1b-6[8:1],7,{8}6,{16}2/1b-4[8:1],3,{8}4,{16}8/1-6[8:1],7,{8}6,
{16}2/1b-4[8:1],3,{8}4,{16}8/1-6[8:1],7,{8}6,{16}2/1b-5-3[4:1],3,{8}4,1b,E7f,
{16},,,,6/7b-1[8:1],5,{8}4,{16}6/7b-2[8:1],5,{8}4,{16}6/7b-3[8:1],5,{8}4,
{16}8/7b-5[8:1],1,{8}2,{16}8/7b-4[8:1],1,{8}2,{16}8/7b-3[8:1],1,{8}2,8/7b,8,
8/1,1,1/8,1/8,8/1,1/8,{16}3,5,2,1,
4w8[16:1],6,8,7,{4}4bx/B5/B1/B7/B3/Cf,{8},,,,8-4[1:1],
8,{4}B1,B6,B3,
4bx-2-8-6[4:3],B2,B8,B6,
Cf,{8}6/5b-2[16:1],6/4,5b/6,7,7/8b-3[16:1],7/1,
8b/7,6,6/5b-2[16:1],6/4,5b/6,7,{16}6bx-2b[8:1],5x,{8}6xh[8:1],
,,3/4b-7[16:1],3/5,4b/3,2,2/1b-6[16:1],2/8,
1b/2,3,3/4b-7[16:1],3/5,4b/3,2,3/4,4/3,
{16}3/4,5,6,7,{8}8/B1,8/B3,8/B5,8/B7,8/B1,8/B3,
B5/8-4b[8:1],8/B7,{4}8bh[2:1]/B8f,{8},,,,,,5/6b-1[16:1],
6/5b-2[16:1],6x,5x,8/7b-4[16:1],7/8b-3[16:1],
7x,8x,1/2b-5[16:1],2/1b-6[16:1],2x,1x,4/3b-8[16:1],3/4b-7[16:1],
3x,4x,5/6b-1[16:1],6/5b-2[16:1],6x,5x,8/7b-4[16:1],7/8b-3[16:1],
7x,8x,1/2b-5[16:1],2/1b-6[16:1],2x,1x,{16}2b,3,4,5,
6b,7,8,1,{8}2/3,2/1,2/4,2/8,2/5,2/7,
6/2>4[16:1],2/6<8[16:1],2-5[16:1],6-1[16:1],2>2[2:1],6,{16}2,A3,A4,A5,
A6,A7,A8,A1,6/A2,7,8/B4,1,2/B6,3,4/B8,5,6/B2,7,8/B4,1,
2/6x-2[8:1],3,4/8x,5,6bx/2bxh[4:3],Cf,,,,,,,,,,,{8}1w5[8:1],
8/2,{4}1b,
E
