&title=Inner Universe
&artist=Jiuwenzi
&des=HarKIn
&first=0.09
&des_1=HarKIn
&lv_5=13+
&clock_count=4
&inote_5=(155)
{1},
{4}B6h[2:1],B3h[4:1],C,{8}1bx-5b[16:1]/8bx-4b[16:1],7bx/2bx,
{48}8b/1bx,Cf,,,,,,,,,,,{4},,,
{1},,,
{4}5h[1:2],E4,,E4,
{8},,E4,E5,,E4,,E4,
{4}4hx[2:3],E6,,E6,
{8},,E6,E5,E4h[4:1],,,,
{16}4x,,,5,4xh[8:1],,6,,4x,,,5,4xh[8:1],,6,,
{16}4x,,,5,4xh[8:1],,6,,4x,4,,6,4x,5,3h[8:1],,
{16}5x,,,4,5hx[8:1],,4,,5x,,,4,5hx[8:1],,4,,
{16}5x,,,4,5hx[8:1],,4,,5-8[8:1],,4,,5hx[8:1],,,,
{16}1x-5[8:1],,8,8x,,7,7x,,8x-4[8:1],,1,1x,,2,2x,,
{16}3x^6[8:1],,8,8x,,7,7x,,6x^3[8:1],,1,1x,,2,2x,,
{16}3x,4,5,6,3x,4,5,6,E4,E5,E6,E7,E3,E4,E5,E6,
{4}E7h[4:1]/E8h[24:5]/B7h[24:4]/A7h[24:3],1q8[4:1],8>5[4:1],,
{8}8bV64[8:1],,8/2-6[8:1],,2/4x-8[8:1]*-7[8:1],,4,,
{16}1b/6b,1/6,,,5x,1,5,4,5-8[8:1]*p1[8:1],2,5,4,5b,,,,
{8}2V46[8:1],,8-4[8:1]/2,8,8/6xq2[8:1]*v3[8:1],,6,,
{16}4b,8,4,5,4,7,4,5,4xv1[8:1]/6xv1[8:1],,5x,,6bx/4bx,,,,
{8}7V58[4:1],,7/8-4[8:1],1,2V46[8:1]*-6[8:1],2,2x,,
{16}7b/8b,7/8,,,4b,5,4,6,4,5,4,7,4-8[8:1],4bx/5bx,,,
{8}4/7V51[16:3],,7x,2,{16}3x-5[16:1],,,6x-2[16:1],,,6x,,
{8}1b,,B7h[2:1],,B8h[4:1],,2b,3b,
{8}4b/5b,6,7b-5[12:1]/5b,,7-3[8:1]/2b-8[12:1],,7b/2^5[8:1],,
{8}2/8b-6[12:1]*v5[8:1],,8-2[12:1]*v3[8:1],,8b,,6b/5b-1[8:1],4,
{8}5b/3b-7[8:1],,3b-8[8:1]/4b,,3bv6[8:1]*p7[8:1]/5b,,3bx,,
{8}1b-5[8:1]/2bp6[8:1],8/3,1b/2b,,4b/3b,2,1x/7x,6x/8x,
{8}7bxqq4[8:3]/5bx,,8-3b[8:1],,8b^2[12:1],,8x,,
{16}5b,1,5,4,5,2,5,4,5q1[8:1]*v2[8:1],3,5,4,5b,,,,
{8}8b^2b[12:1]/3bpp6[8:3],,8b,,{16}2bx,,,1b,,,8b,,
{8}7b/B3h[2:1],,B6h[4:1],,C,,8b-4[16:1]/1b-5b[16:1],7/2,
{48}8b/1b,Cf,,,,,,,,,,,{4},,,
{1},,
{24}5h[4:1],,,E8,E1,E2,E3,,,5x,,,{8}4,3,2,1,
{8}8-5[2:1],,,,,,,,
{4}4^1[2:1],,,,
{4}8^5[2:1],,,,
{4}4w8[2:1],,,,
{8}2pp5[2:1],,2/8h[8:1],,,7h[8:1],,,
{8}6pp3[2:1],,6/1h[8:1],,,2h[8:1],,,
{8}3pp6[2:1],,3/1h[8:1],,,8h[8:1],,,
{8}7qq4[2:1],,7/1h[8:1],,,2,{24}2x,1x,8x,7x,6x,5x,]
{8}4xpp2[2:1],,4/1h[8:1],,,8h[8:1],,,
{8}7pp5[2:1],,7/4h[8:1],,,3h[8:1],,,
{8}2pp8[2:1],,2/5h[8:1],,,6h[8:1],,,
{1}8xp1[8:3]`1xq8b[8:3],
{4}7bh[4:1]/1bh[8:3],,8h[8:3]/2h[4:1],,
{24}7h[4:1],,,2,3,4,5>7[8:3],,,7,,,5h[4:1],,,,,,,,,,,,
{8}B6h[8:1]/B5h[16:3]/E6h[16:4],,,3x,E2h[24:3]/A2h[24:4]/B2h[24:5]/E3h[24:6],,,5x,
{8}B7h[16:2]/E8h[16:3]/B8h[16:4],,,3x,3hx[4:1],,,,
{8}1x/8x,1,1/2,2,2/3,3,3/4,5x,
{8}6x/4x,4,5/3,3,4/2,2,3/1,8x,
{16}1x,4,2,5,3,6,4,7,{32}5x,4,3,2,1,8,7,6,5pp2[2:1]*pp1[2:1],4,3,2,1,8,7,6,
{16}5,,,,,,,,,,,,1b-5[8:1],7b,3b,5b,
{32}1b,Cf,,,,,,,{8}7qq4[8:3]/5,4,7/3-8[8:1],,3^1[12:1],,
{24}3b-8[8:1],,,7,6,5,4xpp8[8:3],,,5x,,,{8}4x,,1x-3[12:1],,
{16}1b-5[8:1],,6-1[8:1],6,1x,,6x,,2^5[8:1],,{24}6p2[8:1],7,8,1,,,6x,,,
{16}4bx-8[8:1],,8-3-1[4:1],8,4x,,7,,6x-2[8:1],,,6,6bx,,1bx,,
{8}8b-4[8:1],,3qq8[8:3],3,3x/5x-8[8:1],,5,,
{24}7b/1b,,,2x,3,4,5<3[4:1],,,8^3[8:1],,,5,,,,,,7bx,,,8b,,,
{24}1b^4[8:1],,,4-8[8:1],5,6,7/1b,,,,,,7^4[8:1],,,4-8[8:1],3,2,1/7b,,,,,,
{16}1bx,,,8b/2b,8b^7-5v8[4:1]/2b^3-5v2[4:1],,7b/3b,,8b/2b,,,,A8f/A2f,,,,
{8}8b/2b,,2pp5[8:3]/4,5,6^8[12:1]/2,,6-1[8:1],,
{24}6b^8[12:1],,,2,3,4,5qq1[8:3],,,4x,,,5x,,,,,,8-6[12:1],,,,,,
{16}8b-4[8:1],,3-8[8:1],3,8x,,3x,,7x-4[12:1],,1-5[8:1],1,7x,,1x,,
{16}8b^5[8:1],,4^1[8:1],4,8x-4b[8:1],,4x,,8x,,,1,1b,,8b/2b,,
{8}1b-5[8:1],,6pp1[8:3]/1,6,6/4x-1[8:1],,4,,
{24}8b/2b,,,7,6,5,4>6[4:1],,,1^6[8:1],,,4x,,,,,,1bx,,,8b,,,
{32}7bhx[8:1]/1bx,2,3,4,5,6,,,6bhx[8:1]/8bx,1,2,3,4,5,,,2bhx[8:1]/8bx,7,6,5,4,3,,,3bhx[8:1]/1bx,8,7,6,5,4,,,
{16}1bx,,,8b/2b,8b^7-5v8[4:1]/2b^3-5v2[4:1],,7b/3b,,8b/2b,,,,A8f/A2f,,,,
{48}1b/5b,B5/B1,C/B7/B3,,,,,,,,,,{4},,,
{1},
E
