&title=Acceleration
&artist=REDALiCE
&first=0
&des=0d00
&des_6=0d00
&lv_6=14
&inote_6=(180){1},6h[2:3]/2-5[2:1],
4-1[2:1],
2h[2:3]/8<4[2:1],
3-6[2:1],
6q2[2:1]/2q6[2:1],
2p5[2:1]/6p1[2:1],
5s1[2:1]/1>5[2:1],
1qq6[2:1]/5qq2[2:1],
{4}4/5-8[2:3],4,3,3,
2,2,1,1,
1/8,7/1,6/1,5/1,
1/5,6/2,7/3,8/4,
{8}3/5,4,4/6,5,5/3,4,4/6,5,
4/2,3,5/7,6,4/1,3,5/8,6,
{16}4,5,4,5,4,5,4,5,4,5,3,6,4,5,3,6,
4,3,2,1,8,7,6,5,{32}4,3,2,1,8,7,6,5,4,3,2,1,8,7,6,5,
{4}4b,{8}1/2,1/8,{32}8-4[8:1],7,6,5,{8}4,{4}8b,
{8}7-3[8:1],1,3-7[8:1],2,7-3[8:1],1,3-7[8:1],8,
7-3[8:1],1,3-7[8:1],2,7-3[8:1],1,{4}3,
{8}1-5[8:1],7,5-1[8:1],6,1-5[8:1],7,5-1[8:1],8,
1-5[8:1],7,5-1[8:1],6,1,8,{4}7,
{8}1-6[8:1],2-5[8:1],1,2,4-7[8:1],3-8[8:1],4,3,
6-1[8:1],5-2[8:1],6,5,7,8,{4}7,
{8}1/8,2,3,4,6/5,7,8-4[8:1],1-5[8:1],
8-6[8:1],1-3[8:1],8,1,,8b/1b,{4}7b/2b,
{8}6/4,2,5/3,7,6/4,2,5/3,7,
6/4,1,5/3,8,6/4,1,2,3,
4/3,7,6/5,2,3/4,7,6/5,2,
4/3,8,6/5,1,4/3,8,1,8,
8/7,5,8/7,5,1/2,4,1/2,4,
5/4,6,5/4,3,5/4,7,5/4,2,
5/4,5/4,6/3,6/3,7/2,7/2,8/1,8/1,
8b/1b,7b/2b,8b/1b,6b/3b,,8b/4b,{4}2b/6b,
{1}4b/5b<4[2:7],
4,
2,
7,
{4}4>5[2:7],,,6,
{2}7,3h[4:1],
{1}2h[1:1],
{6},,,,,,4b/2b-5[12:1],
7b,{24},{8}6b,{6}4b-1[12:1],2b,{24},{8}3b,
{4}4h[4:1],{32}8b,1,2,3,4,5,6,7,{4}8w4[8:1],8b,
{8}2/6-1[8:1],7,6/3v6[8:1],4,3/8>3[8:1],7,8/4-1[8:1],5,
4/7-2[8:1],8,7/5qq2[8:3],4,5/1-6[8:1],8,{4}1,
{8}7-4[8:1],8,7/1-5[8:1],8,1/6q2[8:1],7,6/4>1[8:1],3,
4/7v4[4:1],6,4V61[8:3],3,2-5[8:1],1,{4}2,
{8}4/8-5[8:1],4,4/8,4,4/8-3[8:1],4,4/8,4,
4/8-5[8:1],4,4/8,4,4/8-3[8:1],4,{4}4/8,
{8}5/1-6[8:1],5,5/1,5,5/7q3[8:1],5,5/7,5,
5/4,6/3,5/4,7/2,,1b/8b,{4}7b/2b,
{8}1-3[8:1],4,1-5[8:1],6,1-3[8:1],4,1-5[8:1],6,
1-3[8:1],4,1-5[8:1],6,1-3[8:1],4,1,7,
8-5[8:1],3,8-3[8:1],2,8-4[8:1],5,8<6[8:1],1,
8v5[8:1],3,8>3[8:1],4,8p4[8:1],5,{4}8,
{8}8/1>3[8:1],8,7/1-4[8:1],7,6/1-5[8:1],6,7/1-4[8:1],7,
8/1>3[8:1],7,7/1-4[8:1],6,6/1-5[8:1],7,7/1,8,
1-3[8:1],8-6[8:1],1-5[8:1],8-4[8:1],1-6[8:1],8-3[8:1],1,8,
4,5,3/4,6/5,,2b/7b,{4}6b/3b,
{8}5b/4b,6b/8b,3b/1b,7b/2b,,1b/5b,{4}3b-8[8:1]/7b-4[8:1],
{1}7/3,
E
