&title=青苹果乐园
&artist=小虎队
&first=0
&des=TFboys
&lv_5=13
&inote_5=(124.8)
,,,,,,
{16}
7/5-1[8:1],,,,4,,,,2/4-8[8:1],,,5,,,,,
7/6b,,,2/3b,,
{64},1b/8b,,,,,,,,,,,,,,,,,,,,,,,,,,
{384},,,
(125)
{8}
2/7,,
6^1[8:1]/4,,5,,3^8[8:1]/5,,4,,
6-1[8:1],,2-5[8:1],,8-3[8:1]*-5[8:1],,,,
6^3[8:1],,,,1-5[8:1],8V62[8:3],,,,,4-1[8:1],,5-8[8:1],,,,
3^8[8:1]/5,,4,,6^1[8:1]/4,,5,,
3-8[8:1],,7-4[8:1],,1-6[8:1]*-4[8:1],,,,
3^6[8:1],,,,8-4[8:1],1V37[8:3],,,,,5-8[8:1],,4-1[8:1],,,,
{384},,,,
(124.85)
{8}
2b/7b,,,,,,,,
{16}8b/7b,8b/7b,8b/7b,,,,1b/2b,1b/2b,1b/2b,,,,,,,,
{8}
7-4[8:1]/4,,2-7[8:1],,4,5,6h[4:1],,8-3[8:1],,5-8[8:1],,1,2,3/7,,6/5,3,5-1[8:1],,4-8[8:1],,,,
{16}
7,5,6,,3,4,,,1b/6b,,,,3/8,,,,
{8}2^5[8:1]/5,,7^2[8:1],,5,4,3h[4:1],,6^1[8:1],,6-2[8:1],,8,7,6h[2:1],,3^8[8:1],3,,,7^2[8:1],4>5[2:1],7,,,,,,8-4[8:1],,8b,,
7-4[8:1]/5-1[8:1],,,,2-5[8:1]/4-8[8:1],,,,
{16}
7/8,,6,,2,,5,4,,8,1,,2/6,,,,
6-2[8:1]/8,,,,,,,,3-7[8:1]/1,,,,,,,,
8,,8,,7/5,,4,3,4,2,4,,1,,2/8,2/8,
{8}
2-5[8:1]/8,,7-4[8:1]/2,,1-5[8:1]/7,,1/8,,
7-4[8:1]/1,,2-5[8:1]/7,,8-4[8:1]/2,,8/1,,
{16}
6h[8:3]/4b,,,7,,,1,,3h[8:3]/5b,,,2,,,8,,
7/5,7/5,,,2/4,2/4,,,4b-8[8:1]/5b-1[8:1],,,,
,,,,
7-3[16:1],,,2-6[16:1],,,1b,,,,1,,8/4,,8,,7/4,7,,,2/5,2,,,5/4,3,6,,4b,,,,
6-2[16:1],,,1-5[16:1],,,8b,,,,8/3,,6,,6/1,,3,5,5,,4/6,,2,,5,,7/8,7/8,,,
,,
7-3[16:1],,,7/2-6[16:1],,,8^5[4:1],,,,4,,2,,1,,8,6,1,7,2,,8/2,,8/3,4,,1,2b/7b,,,,
6-2[16:1],,,6/1-5[16:1],,,1/8b,,,,8/3,,6,,6/1,,3,7,5,8,1-5[8:1],,2/7,,1/6-1[8:1],,7,,4b,4b,,,
6-1[8:1],,4,,6,,2,2,8-4[8:1],,1,,8,,,,
3-8[8:1],,5,,3,,7,7,1-5[8:1],,8,,1,,,,
7/5h[8:1],,6,,4,,3,3,4/2h[8:1],,5,,6/4,,7/3,,
{8}8-4[8:1],1-5[8:1],8^5[8:1],1^4[8:1],8,1,8b,,
1>7[4:1]/7,,8,,1<3[4:1],,2,,1>7[4:1],,8,,1<3[4:1],,2,,
1p5[4:1],,5p1[4:1],,1p5[4:1],,5p1[4:1],,1p5[4:1],,5p1[4:1],,1p5[4:1],,5,,
8<2[4:1],,1,,8>6[4:1],,7,,8<2[4:1],,1,,8>6[4:1],,7,,
8q4[4:1],,4q8[4:1],,8q4[4:1],,4q8[4:1],,8q4[4:1],,4q8[4:1],,8q4[4:1],,4,,
8>8[2:3],,,,,,,,,,,,,,,,
{16}
7/5-1[8:1],,,,4,,,,2/4-8[8:1],,,5,,,,,
7/6b,,,2/3b,,
{32},1b/8b,,,,,,,,,
{16}1b/8,1/8b,1b/8b,
